.
Авторизация | Регистрация
Хочешь лучшие торренты? Добавь свой email!
Добавить
» » Черепашки-ниндзя 3 / Teenage Mutant Ninja Turtles III (1993) BDRip от Youtracker торрент скачать бесплатно




    Черепашки-ниндзя 3 / Teenage Mutant Ninja Turtles III (1993) BDRip от Youtracker торрент скачать бесплатно

    Опубликовал: Админ | Дата: 27-02-2015, 11:09 | Просмотров: 378



    Год выпуска: 1993
    Страна: США, Гонконг

    Жанр: боевик, фэнтези, комедия, приключения, семейный
    Продолжительность: 01:35:46

    Перевод: Многоголосный (закадровый) - Новый канал,

    Субтитры: Русский, Английский, Французский
    Оригинальная аудио дорожка: нет

    Режиссер: Стюарт Гиллард / Stuart Gillard

    В ролях: Элиас Котеас, Пейдж Турко, Стюарт Уилсон, Саб Симоно, Вивиан Ву, Марк Казо, Мэтт Хилл, Джим Рапоса, Дэвид Фрайзер, Генри Хаяши, Джон Эйлуорд, Мак Такано, Steve Akahoshi, Кент Ким, Кен Кенсей, Трэвис А. Мун, Тэд Хорино, Глен Чин и др.

    Описание: Эйприл где-то на распродаже купила Сплинтеру старинный японский скипетр, и ещё всяких других подарков для своих друзей черепашек. Как выяснилось, этот скипетр — не просто обычный антиквариат, а прообраз машины времени. Но он работает только в том случае, когда вес путешественников во времени одинаков с обоих сторон.
    Так случилось, что скипетр перенес Эйприл в феодальную Японию, в 1393-й год. Следом за ней отправились и черепашки, но вот беда, вместо того, чтобы попасть в храм, где по идее должен был находится скипетр, они оказываются посреди поля сражения. Во всей этой неразберихе теряется Микеланджело со скипетром. И теперь черепашкам нужно не только спасти Эйприл, но и вернуть скипетр. В нашем времени в этот момент тоже совсем не скучно.




    Исходник: BDRemux
    Качество: BDRip
    Формат: AVI
    Видео: 720x400 (1,870:1), 23,976 fps, XviD ~ 1784 kbps avg, 0.258 bit/pixel
    Аудио: 48 kHz, AC3 5.1, 384 kbps Русский Новый канал

    Раздача от:
    MediaInfo

    Общее
    Полное имя : Cherepashki-nindzja.3.1993.BDRip,1.46.avi
    Формат : AVI
    Формат/Информация : Audio Video Interleave
    Размер файла : 1,46 Гбайт
    Продолжительность : 1 ч. 35 м.
    Общий поток : 2178 Кбит/сек
    Программа кодирования : VirtualDubModRus 1.5.10.2 (build 2542/release)
    Библиотека кодирования : VirtualDubMod build 2542/release

    Видео
    Идентификатор : 0
    Формат : MPEG-4 Visual
    Профиль формата : Advanced Simple@L5
    Параметр BVOP формата : 1
    Параметр QPel формата : Нет
    Параметр GMC формата : Без точки перехода
    Параметр матрицы формата : Выборочная
    Идентификатор кодека : XVID
    Идентификатор кодека/Подсказка : XviD
    Продолжительность : 1 ч. 35 м.
    Битрейт : 1784 Кбит/сек
    Ширина : 720 пикселей
    Высота : 400 пикселей
    Соотношение сторон : 16:9
    Частота кадров : 23,976 кадра/сек
    Цветовое пространство : YUV
    Субдискретизация насыщенности : 4:2:0
    Битовая глубина : 8 бит
    Тип развёртки : Прогрессивная
    Метод сжатия : С потерями
    Бит/(Пиксели*Кадры) : 0.258
    Размер потока : 1,19 Гбайт (82%)
    Библиотека кодирования : XviD 64

    Аудио
    Идентификатор : 1
    Формат : AC-3
    Формат/Информация : Audio Coding 3
    Расширение режима : CM (complete main)
    Идентификатор кодека : 2000
    Продолжительность : 1 ч. 35 м.
    Вид битрейта : Постоянный
    Битрейт : 384 Кбит/сек
    Каналы : 6 каналов
    Расположение каналов : Front: L C R, Side: L R, LFE
    Частота : 48,0 КГц
    Битовая глубина : 16 бит
    Метод сжатия : С потерями
    Размер потока : 263 Мбайт (18%)
    Выравнивание : Разделение по промежуткам
    Продолжительность промежутка : 42 мс. (1,00 видеокадр)
    Время предзагрузки промежутка : 500 мс

    Скриншоты



    Залил: AVPStudio
    Размер: 1.46 GB (1564508384 Bytes)
    загрузка...
    Рейтинг →
     (голосов: 1, оценка 5/5, голосовать можно 1 раз )

    Другие торренты по теме:

  • Черепашки-ниндзя 3 / Teenage Mutant Ninja Turtles III (1993) BDRip от Youtracker | P
  • Черепашки-ниндзя 3 / Teenage Mutant Ninja Turtles III (1993) НDRip от Scarabey | P


    • Комментарии (0):

      Информация

      Информация

        Посетители, находящиеся в группе Гости, не могут оставлять комментарии в данной новости.

        ↓ Меню



        ↓ Опрос

        А Вы добавили сайт в закладки?
        Да
        Не


        Top 10 за месяц (Фильмы)