.
Авторизация | Регистрация
Хочешь лучшие торренты? Добавь свой email!
Добавить
» » Невиновный / An Innocent Man (1989) HDRip от Leon-masl | D торрент скачать бесплатно




    Невиновный / An Innocent Man (1989) HDRip от Leon-masl | D торрент скачать бесплатно

    Опубликовал: Админ | Дата: 27-02-2015, 11:09 | Просмотров: 369



    Информация о фильме
    Название: Невиновный
    Оригинальное название: An innocent man
    Год выхода: 1989
    Жанр: Боевик, Драма, Криминал
    Режиссер: Питер Йейтс / Peter Yates
    В ролях: Том Селлек, Ф. Мюррэй Абрахам, Лайла Робинс, Дэвид Раш, Ричард Янг, Баджа Джола, Тодд Графф, М. К. Гейни, Питер Ван Норден, Брюс А. Янг

    О фильме:
    Жизнь преуспевающего авиационного инженера Джими Рэйнвуда давно вошла в привычное русло. Все изменилось в одночасье: Джими оказывается в тюрьме по ложному обвинению. Двое коррумпированных полицейских навсегда перечеркнули его счастье и надежду на будущее. По ту сторону неприступной стены для Джими открылся новый страшный мир, где не живут, а выживают. Но на свободе у невиновного осталась одна заветная цель, ради которой стоит бороться: он ждет того момента, когда сможет взглянуть в лицо своим врагам, чтобы они увидели в его глазах очищающее пламя мести.



    Страна: США
    Продолжительность: 01:53:31
    Перевод: Профессиональный (дублированный)

    Файл
    Кодек: Xvid
    Качество: HDRip c |BDRip 720p|
    Видео: 720x400, 23.976 fps, ~1638 kbps
    Аудио: AC3, 2 ch, 192.00 kbps, 48.0 khz
    MI
    Общее
    Полное имя : An.Innocent.Man.1989.HDRip.avi
    Формат : AVI
    Формат/Информация : Audio Video Interleave
    Размер файла : 1,46 Гбайт
    Продолжительность : 1 ч. 53 м.
    Общий поток : 1840 Кбит/сек
    Программа кодирования : VirtualDubMod 1.5.10.3 | www.virtualdub-fr.org || (build 2550/release)
    Библиотека кодирования : VirtualDubMod build 2550/release

    Видео
    Идентификатор : 0
    Формат : MPEG-4 Visual
    Профиль формата : Advanced Simple@L5
    Параметр BVOP формата : 1
    Параметр QPel формата : Нет
    Параметр GMC формата : Без точки перехода
    Параметр матрицы формата : Выборочная
    Идентификатор кодека : XVID
    Идентификатор кодека/Подсказка : XviD
    Продолжительность : 1 ч. 53 м.
    Битрейт : 1638 Кбит/сек
    Ширина : 720 пикс.
    Высота : 400 пикс.
    Соотношение сторон : 16:9
    Частота кадров : 23,976 кадр/сек
    Цветовое пространство : YUV
    Подвыборка цветности : 4:2:0
    Битовая глубина : 8 бит
    Тип развёртки : Прогрессивная
    Метод сжатия : С потерями
    Бит/(Пиксели*Кадры) : 0.237
    Размер потока : 1,30 Гбайт (89%)
    Библиотека кодирования : XviD 73

    Аудио
    Идентификатор : 1
    Формат : AC-3
    Формат/Информация : Audio Coding 3
    Расширение режима : CM (complete main)
    Идентификатор кодека : 2000
    Продолжительность : 1 ч. 53 м.
    Вид битрейта : Постоянный
    Битрейт : 192 Кбит/сек
    Канал(ы) : 2 канала(ов)
    Расположение каналов : Front: L R
    Частота : 48,0 КГц
    Битовая глубина : 16 бит
    Метод сжатия : С потерями
    Размер потока : 156 Мбайт (10%)
    Выравнивание : Разделение по промежуткам
    Продолжительность промежутка : 42 мс. (1,00 видеокадр)
    Время предзагрузки промежутка : 500 ms
    Скриншоты


    Релиз от: Leon-masl
    Залил: leon-masl
    Размер: 1.46 GB (1566230528 Bytes)
    загрузка...
    Рейтинг →
     (голосов: 1, оценка 5/5, голосовать можно 1 раз )

    Другие торренты по теме:

  • Невиновный / An Innocent Man (1989) BDRip 720p от MediaClub | D, P
  • Невиновный / Linnocent (2012) SATRip от GalVid
  • Невиновный / The Innocent (1993) IPTVRip-AVC | P2


    • Комментарии (0):

      Информация

      Информация

        Посетители, находящиеся в группе Гости, не могут оставлять комментарии в данной новости.

        ↓ Меню



        ↓ Опрос

        А Вы добавили сайт в закладки?
        Да
        Не


        Top 10 за месяц (Фильмы)