.
Авторизация | Регистрация
Хочешь лучшие торренты? Добавь свой email!
Добавить
» » Эффект колибри / Hummingbird (2013) WEB-DL 720p от Unionpeer | D | iTunes Russia торрент скачать бесплатно




    Эффект колибри / Hummingbird (2013) WEB-DL 720p от Unionpeer | D | iTunes Russia торрент скачать бесплатно

    Опубликовал: Админ | Дата: 27-02-2015, 11:09 | Просмотров: 365

    Эффект колибри / Hummingbird



    Год выпуска: 2013
    Страна: США
    Жанр: Боевик, триллер
    Продолжительность: 01:40:23
    Перевод: Дублированный Цифровая лицензия iTunes Russia
    Субтитры: English

    Режиссёр: Стивен Найт
    В ролях: Джейсон Стэйтем, Ли Асквит-Коу, Вики МакКлюр, Йен Пири, Бенедикт Вонг, Сенем Темиз, Шиван Хьюлетт, Пол Блэкуэлл, Агата Бузек, Эдди Рубен

    Описание:
    Бывший спецназовец Джоуи Джонс пытается начать новую жизнь. Он соглашается работать на азиатскую мафию. Но проникая все глубже в криминальный мир родного города, он понимает, что не может спокойно смотреть на творящееся в нем беззаконие. Когда от рук бандитов погибает его возлюбленная Изабель, Джоуи решает восстановить справедливость. Он начинает расследование, которое ведет его на самый верх преступного синдиката.

    Качество: WEB-DL 720p (Sample)
    Формат: MKV
    Видео кодек: AVC
    Аудио кодек: AC-3
    Видео:AVC, 1280x530 (2.40:1), 23.976 fps, 3 868 Kbps (0.238 bit/pixel)
    Аудио:
    Russian: AC-3, 48.0 KHz, 6 ch, 384 Kbps
    English: AC-3, 48.0 KHz, 6 ch, 384 Kbps

    Раздача от

    Скриншоты



    MI

    Общее
    Уникальный идентификатор : 192962857403518554512441846363075379275 (0x912B4B65D891025DA46D9BE8E8A8004B)
    Полное имя : D:25KadrEffect.Kolibri.2013.720p.WEB-DL.rus.eng.UNIONPEER.mkv
    Формат : Matroska
    Версия формата : Version 2
    Размер файла : 3,32 Гбайт
    Продолжительность : 1 ч. 40 м.
    Общий поток : 4731 Кбит/сек
    Название фильма : Эффект колибри / Hummingbird 2013 г. | Релиз Unionpeer
    Дата кодирования : UTC 2013-08-12 04:44:51
    Программа кодирования : mkvmerge v3.2.0 (;Beginnings;) built on Feb 12 2010 16:46:17
    Библиотека кодирования : libebml v0.7.9 libmatroska v0.8.1

    Видео
    Идентификатор : 1
    Формат : AVC
    Формат/Информация : Advanced Video Codec
    Профиль формата : Main@L3.1
    Параметр CABAC формата : Нет
    Параметр ReFrames формата : 2 кадра
    Идентификатор кодека : V_MPEG4/ISO/AVC
    Продолжительность : 1 ч. 40 м.
    Битрейт : 3869 Кбит/сек
    Ширина : 1280 пикселей
    Высота : 530 пикселей
    Соотношение сторон : 2,40:1
    Режим частоты кадров : Постоянный
    Частота кадров : 23,976 кадра/сек
    Цветовое пространство : YUV
    Субдискретизация насыщенности : 4:2:0
    Битовая глубина : 8 бит
    Тип развёртки : Прогрессивная
    Бит/(Пиксели*Кадры) : 0.238
    Размер потока : 2,71 Гбайт (82%)
    Язык : English
    Default : Нет
    Forced : Нет
    Основные цвета : BT.709
    Характеристики трансфера : BT.709
    Коэффициенты матрицы : BT.709

    Аудио #1
    Идентификатор : 2
    Формат : AC-3
    Формат/Информация : Audio Coding 3
    Расширение режима : CM (complete main)
    Параметр Endianness формата : Big
    Идентификатор кодека : A_AC3
    Продолжительность : 1 ч. 40 м.
    Вид битрейта : Постоянный
    Битрейт : 384 Кбит/сек
    Каналы : 6 каналов
    Расположение каналов : Front: L C R, Side: L R, LFE
    Частота : 48,0 КГц
    Битовая глубина : 16 бит
    Метод сжатия : С потерями
    Размер потока : 276 Мбайт (8%)
    Заголовок : iTunes Russia
    Язык : Russian
    Default : Нет
    Forced : Нет

    Аудио #2
    Идентификатор : 3
    Формат : AC-3
    Формат/Информация : Audio Coding 3
    Расширение режима : CM (complete main)
    Параметр Endianness формата : Big
    Идентификатор кодека : A_AC3
    Продолжительность : 1 ч. 40 м.
    Вид битрейта : Постоянный
    Битрейт : 384 Кбит/сек
    Каналы : 6 каналов
    Расположение каналов : Front: L C R, Side: L R, LFE
    Частота : 48,0 КГц
    Битовая глубина : 16 бит
    Метод сжатия : С потерями
    Размер потока : 276 Мбайт (8%)
    Язык : English
    Default : Нет
    Forced : Нет

    Текст
    Идентификатор : 4
    Формат : UTF-8
    Идентификатор кодека : S_TEXT/UTF8
    Идентификатор кодека/Информация : UTF-8 Plain Text
    Заголовок : CC
    Язык : English
    Default : Нет
    Forced : Нет

    Меню
    00:00:00.000 : en:Chapter 1
    00:02:45.000 : en:Chapter 2
    00:12:40.000 : en:Chapter 3
    00:22:03.000 : en:Chapter 4
    00:30:37.000 : en:Chapter 5
    00:38:18.000 : en:Chapter 6
    00:47:27.000 : en:Chapter 7
    00:57:30.000 : en:Chapter 8
    01:06:57.000 : en:Chapter 9
    01:14:56.000 : en:Chapter 10
    01:24:26.000 : en:Chapter 11
    01:35:50.000 : en:Chapter 12

    Залил: Murtini
    Размер: 3.32 GB (3562121956 Bytes)
    загрузка...
    Рейтинг →
     (голосов: 1, оценка 4/5, голосовать можно 1 раз )

    Другие торренты по теме:

  • Эффект колибри / Hummingbird (2013) HD 1080p | Трейлер
  • Эффект колибри / Hummingbird (2013) BDRip 720p от leonardo 59 Scarabey | iTunes Russia
  • Эффект колибри / Hummingbird (2013) BDRip-AVC от leonardo 59 Scarabey | iTunes Russia
  • Эффект колибри / Hummingbird (2013) HDRip от Scarabey | Лицензия
  • Эффект колибри / Hummingbird (2013) BDRip-AVC от ExKinoRay | Лицензия
  • Эффект колибри / Hummingbird (2013) BDRip 720p | Лицензия
  • Эффект колибри / Hummingbird (2013) BDRemux 1080p | D | POR Transfer | Лицензия
  • Эффект колибри / Hummingbird (2013) BDRemux 1080i | Лицензия


    • Комментарии (0):

      Информация

      Информация

        Посетители, находящиеся в группе Гости, не могут оставлять комментарии в данной новости.

        ↓ Меню



        ↓ Опрос

        А Вы добавили сайт в закладки?
        Да
        Не


        Top 10 за месяц (Фильмы)