.
Авторизация | Регистрация
Хочешь лучшие торренты? Добавь свой email!
Добавить
» » Тираннозавр / Tyrannosaur (2011) BDRip от Youtracker | P, P1 торрент скачать бесплатно




    Тираннозавр / Tyrannosaur (2011) BDRip от Youtracker | P, P1 торрент скачать бесплатно

    Опубликовал: Админ | Дата: 27-02-2015, 11:09 | Просмотров: 374


    Год выпуска: 2011
    Страна: Великобритания
    Киностудия: EM Media, Film4...

    Жанр: драма
    Продолжительность: 01:28:31

    Перевод: Профессиональный (многоголосый) Профессиональный (Одноголосый)
    Субтитры: русский, английский
    Оригинальная аудиодорожка: нет

    Режиссер: Пэдди Консидайн / Paddy Considine

    В ролях: Питер Муллан, Оливия Колман, Эдди Марсан, Нед Деннехи, Сэмюэл Боттомли, Арчи Лал, Джаг Сангера, Майк Фернли, Пол Конуэй, Ли Руффорд...

    Описание: Немолодой уже Джозеф встречает свою ровесницу Ханну, и они явно симпатизируют друг другу. Чем не начало для тихой лирической истории, если не знать Джозефа — завсегдатая пабов, после посещения которых он превращается в неукротимого доисторического ящера, в угрозу для всего микрорайона. У тихой же и наполненной светом Ханны есть своя тайна, свой скелет в шкафу.



    Исходники: BDRemux DVD5 R5
    Качество: BDRip
    Формат: AVI
    Видео: 720x304 (2.35:1), 25.000 fps, XViD ~ 1684 kbps avg, 0.308 bit/pixel
    Аудио 1: 48 kHz, АС3 2 ch, 224 kbps, русский MVO
    Аудио 2: 48 kHz, АС3 6 ch, 448 kbps, русский VO
    Формат субтитров: SoftSub (srt)
    Предупреждение: В русских субтитрах присутствует ненормативная лексика, при детях не включать.

    Раздача от:
    MediaInfo

    Общее
    Полное имя : Tirannozavr.2011.P.BDRip_Youtracker_by_avproh.avi
    Формат : AVI
    Формат/Информация : Audio Video Interleave
    Размер файла : 1,47 Гбайт
    Продолжительность : 1 ч. 28 м.
    Общий поток : 2370 Кбит/сек
    Программа кодирования : VirtualDubModRus 1.5.10.2 (build 2542/release)
    Библиотека кодирования : VirtualDubMod build 2542/release

    Видео
    Идентификатор : 0
    Формат : MPEG-4 Visual
    Профиль формата : Advanced Simple@L5
    Параметр BVOP формата : 1
    Параметр QPel формата : Нет
    Параметр GMC формата : Без точки перехода
    Параметр матрицы формата : Выборочная
    Идентификатор кодека : XVID
    Идентификатор кодека/Подсказка : XviD
    Продолжительность : 1 ч. 28 м.
    Битрейт : 1684 Кбит/сек
    Ширина : 720 пикселей
    Высота : 304 пикселя
    Соотношение сторон : 2,35:1
    Частота кадров : 25,000 кадров/сек
    Цветовое пространство : YUV
    Субдискретизация насыщенности : 4:2:0
    Битовая глубина : 8 бит
    Тип развёртки : Прогрессивная
    Метод сжатия : С потерями
    Бит/(Пиксели*Кадры) : 0.308
    Размер потока : 1,04 Гбайт (71%)
    Библиотека кодирования : XviD 65

    Аудио #1
    Идентификатор : 1
    Формат : AC-3
    Формат/Информация : Audio Coding 3
    Расширение режима : CM (complete main)
    Параметр Endianness формата : Big
    Идентификатор кодека : 2000
    Продолжительность : 1 ч. 28 м.
    Вид битрейта : Постоянный
    Битрейт : 224 Кбит/сек
    Каналы : 2 канала
    Расположение каналов : Front: L R
    Частота : 48,0 КГц
    Битовая глубина : 16 бит
    Метод сжатия : С потерями
    Размер потока : 142 Мбайт (9%)
    Выравнивание : Разделение по промежуткам
    Продолжительность промежутка : 40 мс. (1,00 видеокадр)
    Время предзагрузки промежутка : 500 мс.

    Аудио #2
    Идентификатор : 2
    Формат : AC-3
    Формат/Информация : Audio Coding 3
    Расширение режима : CM (complete main)
    Параметр Endianness формата : Big
    Идентификатор кодека : 2000
    Продолжительность : 1 ч. 28 м.
    Вид битрейта : Постоянный
    Битрейт : 448 Кбит/сек
    Каналы : 6 каналов
    Расположение каналов : Front: L C R, Side: L R, LFE
    Частота : 48,0 КГц
    Битовая глубина : 16 бит
    Метод сжатия : С потерями
    Размер потока : 284 Мбайт (19%)
    Выравнивание : Разделение по промежуткам
    Продолжительность промежутка : 40 мс. (1,00 видеокадр)
    Время предзагрузки промежутка : 500 мс.

    Скриншоты:



    Сравнение:

    http://alt.rutor.org/torrent/247420/

    http://screenshotcomparison.com/comparison/35942

    Залил: avproh
    Размер: 1.47 GB (1573641216 Bytes)
    загрузка...
    Рейтинг →
     (голосов: 1, оценка 5/5, голосовать можно 1 раз )

    Другие торренты по теме:

  • Тираннозавр / Tyrannosaur (2011) HDRip | P
  • National Geographic. Тираннозавр: Чемпион по выживанию / T.Rex: Ultimate Survivor (2015) SATRip от GeneralFilm | D


    • Комментарии (0):

      Информация

      Информация

        Посетители, находящиеся в группе Гости, не могут оставлять комментарии в данной новости.

        ↓ Меню



        ↓ Опрос

        А Вы добавили сайт в закладки?
        Да
        Не


        Top 10 за месяц (Фильмы)