.
Авторизация | Регистрация
Хочешь лучшие торренты? Добавь свой email!
Добавить
» » Космический джэм / Space Jam (1996) BDRip 1080p от 0ptimus | D, P, A торрент скачать бесплатно




    Космический джэм / Space Jam (1996) BDRip 1080p от 0ptimus | D, P, A торрент скачать бесплатно

    Опубликовал: Админ | Дата: 27-02-2015, 11:09 | Просмотров: 1248



    Информация о фильме
    Название: Космический джэм
    Оригинальное название: Space Jam
    Год выхода: 1996
    Жанр: мультфильм, фантастика, комедия, приключения, семейный, спорт
    Режиссер: Джо Питка
    В ролях: Майкл Джордан, Уэйн Найт, Билли Уэст, Ди Брэдли Бейкер, Тереза Рэндл, Дэнни ДеВито, Боб Берген, Эрик Гордон, Пенни Бай Бриджес

    О фильме:
    Кролик и чемпион — что за команда! Майкл Джордан бьет по мячу, а Багз Банни тусуется. Вся кавалькада звезд из серии Сумасшедшие мелодии не даст Вам скучать в мультипликационно-игровом фильме Космический джэм, в котором голливудские таланты не позволят Вашей фантазии связать себя земным притяжением. Шутки летают и веселье никогда не кончается. Кролик Багз Банни устроил себе и своей команде веселенькое испытание, предложив померяться силами со сварливой бандой крошечных космических пришельцев. От исхода матча зависит, останутся ли мультгерои на Земле, или отправятся развлекать публику в заброшенной космической дыре под названием Гора Морон. Пришельцы владеют страшным секретным оружием: украденным у звезд баскетбола мастерством, что помогло им стать спортивными монстрами. Но это еще не все, ребята! У команды мультяшек есть свое секретное оружие: лучший игрок в этой, и прочих галактиках! Веселье — тоже галактическое



    Официальный сайт

    Страна: США
    Студия: Warner Bros., Family Entertainment, Northern Lights Entertainment, Courtside Seats Productions
    Продолжительность: 01:27:20
    Перевод: Дублированный, профессиональный (многоголосый закадровый), авторский (одноголосый закадровый)

    Файл
    Кодек: h.264
    Качество: BDRip (1080p)
    Видео: 11.5 Мбит/с, 1908x1080, 23.976 кадр/с

    Звук:
    • №1: Русский (АС3, 6 ch, 384 Кбит/с) Дублированный Мост Видео
    • №2: Русский (АС3, 2 ch, 192 Кбит/с) Дублированный Варус Видео
    • №3: Русский (АС3, 6 ch, 448 Кбит/с) Профессиональный многоголосый Мост Видео
    • №4: Русский (АС3, 2 ch, 192 Кбит/с) Профессиональный многоголосый РЕН ТВ
    • №5: Русский (DTS, 6 ch, 1536 Кбит/с) Авторский одноголосый Павел Санаев
    • №6: Русский (DTS, 6 ch, 1536 Кбит/с) Авторский одноголосый Юрий Живов
    • №7: Русский (AC3, 2 ch, 192 Кбит/с) Авторский одноголосый Александр Кашкин (Первомайский)
    • №8: Русский (AC3, 2 ch, 192 Кбит/с) Авторский одноголосый КоллЕдж
    • №9: Русский (AC3, 2 ch, 192 Кбит/с) Авторский одноголосый Сергей Визгунов
    • №10: Украинский (AC3, 2 ch, 192 Кбит/с) Профессиональный многоголосый ICTV
    • №11: Английский (DTS, 6 ch, 1536 Кбит/с)


    Субтитры: Русские, английские

    MediaInfo

    Видеоряд: MySilu
    Звук: HDClub

    Общее
    Уникальный идентификатор : 208605172602921511500785848053334321612 (0x9CEFE514B176AEB483A0A8A52C1CA9CC)
    Полное имя : F:Space.Jam.1996.x264.BDRip.(1080p).mkv
    Формат : Matroska
    Версия формата : Version 4 / Version 2
    Размер файла : 11,0 Гбайт
    Продолжительность : 1 ч. 27 м.
    Общий поток : 18,0 Мбит/сек
    Название фильма : Космический Джэм | Space Jam 1996
    Дата кодирования : UTC 2013-08-13 16:37:57
    Программа кодирования : mkvmerge v6.1.0 (;Old Devil;) built on Mar 2 2013 14:32:37
    Библиотека кодирования : libebml v1.3.0 libmatroska v1.4.0
    Attachment : Yes / Yes

    Видео
    Идентификатор : 1
    Формат : AVC
    Формат/Информация : Advanced Video Codec
    Профиль формата : High@L4.1
    Параметр CABAC формата : Да
    Параметр ReFrames формата : 4 кадра
    Идентификатор кодека : V_MPEG4/ISO/AVC
    Продолжительность : 1 ч. 27 м.
    Битрейт : 11,5 Мбит/сек
    Ширина : 1908 пикселей
    Высота : 1080 пикселей
    Соотношение сторон : 16:9
    Частота кадров : 23,976 кадра/сек
    Цветовое пространство : YUV
    Субдискретизация насыщенности : 4:2:0
    Битовая глубина : 8 бит
    Тип развёртки : Прогрессивная
    Бит/(Пиксели*Кадры) : 0.233
    Размер потока : 6,81 Гбайт (62%)
    Библиотека кодирования : x264 core 118 r2085 8a62835
    Настройки программы : cabac=1 / ref=4 / deblock=1:-2:-2 / analyse=0x3:0x113 / me=umh / subme=10 / psy=1 / psy_rd=1.20:0.20 / mixed_ref=1 / me_range=32 / chroma_me=1 / trellis=2 / 8x8dct=1 / cqm=0 / deadzone=21,11 / fast_pskip=0 / chroma_qp_offset=-3 / threads=6 / sliced_threads=0 / nr=0 / decimate=0 / interlaced=0 / bluray_compat=0 / constrained_intra=0 / bframes=5 / b_pyramid=2 / b_adapt=2 / b_bias=0 / direct=3 / weightb=1 / open_gop=0 / weightp=2 / keyint=250 / keyint_min=2 / scenecut=40 / intra_refresh=0 / rc_lookahead=72 / rc=2pass / mbtree=1 / bitrate=11525 / ratetol=1.0 / qcomp=0.60 / qpmin=10 / qpmax=51 / qpstep=4 / cplxblur=20.0 / qblur=0.5 / vbv_maxrate=38000 / vbv_bufsize=38000 / nal_hrd=none / ip_ratio=1.40 / aq=1:1.00
    Язык : English

    Аудио #1
    Идентификатор : 2
    Формат : AC-3
    Формат/Информация : Audio Coding 3
    Расширение режима : CM (complete main)
    Идентификатор кодека : A_AC3
    Продолжительность : 1 ч. 27 м.
    Вид битрейта : Постоянный
    Битрейт : 384 Кбит/сек
    Каналы : 6 каналов
    Расположение каналов : Front: L C R, Side: L R, LFE
    Частота : 48,0 КГц
    Битовая глубина : 16 бит
    Метод сжатия : С потерями
    Размер потока : 240 Мбайт (2%)
    Заголовок : Дублированный Мост Видео AC3 5.1 @ 384 kbps
    Язык : Russian

    Аудио #2
    Идентификатор : 3
    Формат : AC-3
    Формат/Информация : Audio Coding 3
    Расширение режима : CM (complete main)
    Идентификатор кодека : A_AC3
    Продолжительность : 1 ч. 27 м.
    Вид битрейта : Постоянный
    Битрейт : 192 Кбит/сек
    Каналы : 2 канала
    Расположение каналов : Front: L R
    Частота : 48,0 КГц
    Битовая глубина : 16 бит
    Метод сжатия : С потерями
    Размер потока : 120 Мбайт (1%)
    Заголовок : Дублированный Варус Видео AC3 2.0 @ 192 kbps
    Язык : Russian

    Аудио #3
    Идентификатор : 4
    Формат : AC-3
    Формат/Информация : Audio Coding 3
    Расширение режима : CM (complete main)
    Идентификатор кодека : A_AC3
    Продолжительность : 1 ч. 27 м.
    Вид битрейта : Постоянный
    Битрейт : 448 Кбит/сек
    Каналы : 6 каналов
    Расположение каналов : Front: L C R, Side: L R, LFE
    Частота : 48,0 КГц
    Битовая глубина : 16 бит
    Метод сжатия : С потерями
    Размер потока : 280 Мбайт (2%)
    Заголовок : Многоголосый Мост Видео AC3 5.1 @ 448 kbps
    Язык : Russian

    Аудио #4
    Идентификатор : 5
    Формат : AC-3
    Формат/Информация : Audio Coding 3
    Расширение режима : CM (complete main)
    Идентификатор кодека : A_AC3
    Продолжительность : 1 ч. 27 м.
    Вид битрейта : Постоянный
    Битрейт : 192 Кбит/сек
    Каналы : 2 канала
    Расположение каналов : Front: L R
    Частота : 48,0 КГц
    Битовая глубина : 16 бит
    Метод сжатия : С потерями
    Размер потока : 120 Мбайт (1%)
    Заголовок : Многоголосый РЕН-ТВ AC3 2.0 @ 192 kbps
    Язык : Russian

    Аудио #5
    Идентификатор : 6
    Формат : DTS
    Формат/Информация : Digital Theater Systems
    Идентификатор кодека : A_DTS
    Продолжительность : 1 ч. 27 м.
    Вид битрейта : Постоянный
    Битрейт : 1510 Кбит/сек
    Каналы : 6 каналов
    Расположение каналов : Front: L C R, Side: L R, LFE
    Частота : 48,0 КГц
    Битовая глубина : 24 бит
    Метод сжатия : С потерями
    Размер потока : 943 Мбайт (8%)
    Заголовок : Авторский Павел Санаев DTS 5.1 @ 1536 kbps
    Язык : Russian

    Аудио #6
    Идентификатор : 7
    Формат : DTS
    Формат/Информация : Digital Theater Systems
    Идентификатор кодека : A_DTS
    Продолжительность : 1 ч. 27 м.
    Вид битрейта : Постоянный
    Битрейт : 1510 Кбит/сек
    Каналы : 6 каналов
    Расположение каналов : Front: L C R, Side: L R, LFE
    Частота : 48,0 КГц
    Битовая глубина : 24 бит
    Метод сжатия : С потерями
    Размер потока : 943 Мбайт (8%)
    Заголовок : Авторский Юрий Живов DTS 5.1 @ 1536 kbps
    Язык : Russian

    Аудио #7
    Идентификатор : 8
    Формат : AC-3
    Формат/Информация : Audio Coding 3
    Расширение режима : CM (complete main)
    Идентификатор кодека : A_AC3
    Продолжительность : 1 ч. 27 м.
    Вид битрейта : Постоянный
    Битрейт : 192 Кбит/сек
    Каналы : 2 канала
    Расположение каналов : Front: L R
    Частота : 48,0 КГц
    Битовая глубина : 16 бит
    Метод сжатия : С потерями
    Размер потока : 120 Мбайт (1%)
    Заголовок : Авторский Александр Кашкин AC3 2.0 @ 192 kbps
    Язык : Russian

    Аудио #8
    Идентификатор : 9
    Формат : AC-3
    Формат/Информация : Audio Coding 3
    Расширение режима : CM (complete main)
    Идентификатор кодека : A_AC3
    Продолжительность : 1 ч. 27 м.
    Вид битрейта : Постоянный
    Битрейт : 192 Кбит/сек
    Каналы : 2 канала
    Расположение каналов : Front: L R
    Частота : 48,0 КГц
    Битовая глубина : 16 бит
    Метод сжатия : С потерями
    Размер потока : 120 Мбайт (1%)
    Заголовок : Авторский КоллЕдж AC3 2.0 @ 192 kbps
    Язык : Russian

    Аудио #9
    Идентификатор : 10
    Формат : AC-3
    Формат/Информация : Audio Coding 3
    Расширение режима : CM (complete main)
    Идентификатор кодека : A_AC3
    Продолжительность : 1 ч. 27 м.
    Вид битрейта : Постоянный
    Битрейт : 192 Кбит/сек
    Каналы : 2 канала
    Расположение каналов : Front: L R
    Частота : 48,0 КГц
    Битовая глубина : 16 бит
    Метод сжатия : С потерями
    Размер потока : 120 Мбайт (1%)
    Заголовок : Авторский Сергей Визгунов AC3 2.0 @ 192 kbps
    Язык : Russian

    Аудио #10
    Идентификатор : 11
    Формат : AC-3
    Формат/Информация : Audio Coding 3
    Расширение режима : CM (complete main)
    Идентификатор кодека : A_AC3
    Продолжительность : 1 ч. 27 м.
    Вид битрейта : Постоянный
    Битрейт : 192 Кбит/сек
    Каналы : 2 канала
    Расположение каналов : Front: L R
    Частота : 48,0 КГц
    Битовая глубина : 16 бит
    Метод сжатия : С потерями
    Размер потока : 120 Мбайт (1%)
    Заголовок : Многоголосный ICTV AC3 2.0 @ 192 kbps
    Язык : Ukrainian

    Аудио #11
    Идентификатор : 12
    Формат : DTS
    Формат/Информация : Digital Theater Systems
    Идентификатор кодека : A_DTS
    Продолжительность : 1 ч. 27 м.
    Вид битрейта : Постоянный
    Битрейт : 1510 Кбит/сек
    Каналы : 6 каналов
    Расположение каналов : Front: L C R, Side: L R, LFE
    Частота : 48,0 КГц
    Битовая глубина : 24 бит
    Метод сжатия : С потерями
    Размер потока : 943 Мбайт (8%)
    Заголовок : DTS 5.1 @ 1536 kbps
    Язык : English

    Текст #1
    Идентификатор : 13
    Формат : UTF-8
    Идентификатор кодека : S_TEXT/UTF8
    Идентификатор кодека/Информация : UTF-8 Plain Text
    Язык : Russian

    Текст #2
    Идентификатор : 14
    Формат : UTF-8
    Идентификатор кодека : S_TEXT/UTF8
    Идентификатор кодека/Информация : UTF-8 Plain Text
    Язык : English

    Меню
    00:00:00.000 : en:Michael;s Dream
    00:02:22.642 : en:Hoop-Crazy / Credits
    00:05:54.854 : en:Moon Mountain
    00:09:01.123 : en:Good-Looking Strikeout
    00:11:35.945 : en:Diminutive Visitors
    00:14:09.139 : en:At Home With the Jordans
    00:18:14.468 : en:The Challenge
    00:21:36.628 : en:Disorder in the Court
    00:24:26.339 : en:Player Revolt
    00:25:47.087 : en:Monstars!
    00:27:45.413 : en:Hole in One... With Help
    00:30:26.533 : en:Vanishing Act
    00:31:19.711 : en:Michael;s New Pals
    00:34:05.001 : en:The Mean Team Visits
    00:36:59.300 : en:A Wannabe Charles Barkley
    00:38:11.914 : en:What;s The Matter?
    00:39:39.418 : en:Don;t Call Me ;Doll;
    00:42:11.070 : en:Michael;s Gear
    00:45:54.084 : en:Unbelievable
    00:46:39.755 : en:Daffy;s Suggestion
    00:47:11.787 : en:He Can Still Play
    00:48:05.799 : en:Dork on the Bench
    00:50:01.039 : en:Staring Lineups
    00:53:40.884 : en:Kinda One-Sided
    00:56:56.746 : en:The Smell of a Spy
    00:57:56.973 : en:Secret Stuff
    01:00:14.068 : en:Whole New Ball Game
    01:02:27.577 : en:Raising the Stakes
    01:04:09.679 : en:Monstar Mash
    01:06:06.420 : en:Stan;s in - and Out
    01:07:42.475 : en:Our Fifth Guy
    01:09:32.793 : en:The Final Basket
    01:11:49.388 : en:Swackhammer;s Space Jam
    01:12:30.304 : en:Looney Enough?
    01:14:16.452 : en:Making an Entrance
    01:15:25.896 : en:Back in the Game
    01:18:23.490 : en:End Credits
    01:26:53.208 : en:That;s All, Folks!
    Скриншоты




    Релиз от:
    Размер: 11.01 GB (11816818381 Bytes)
    загрузка...
    Рейтинг →
     (голосов: 1, оценка 5/5, голосовать можно 1 раз )

    Другие торренты по теме:

  • OST - Космический джэм / Space Jam (1996) MP3
  • Космический джэм / Space Jam (1996) BDRip-AVC от 0ptimus | D, P, A
  • Космический Джэм / Space Jam (1996) Blu-Ray Remux 1080p


    • Комментарии (0):

      Информация

      Информация

        Посетители, находящиеся в группе Гости, не могут оставлять комментарии в данной новости.

        ↓ Меню



        ↓ Опрос

        А Вы добавили сайт в закладки?
        Да
        Не


        Top 10 за месяц (Фильмы)