.
Авторизация | Регистрация
» » Дикие псы / Cani arrabbiati (1974) BDRip 720p | A торрент скачать бесплатно




    Дикие псы / Cani arrabbiati (1974) BDRip 720p | A торрент скачать бесплатно

    Опубликовал: Админ | Дата: 27-02-2015, 11:09 | Просмотров: 356



    Название: Дикие псы
    Оригинальное название: Cani arrabbiati
    Год выпуска: 1974
    Жанр: Триллер, криминал
    Выпущено: Италия, International Media Films, Spera Cinematografica
    Режиссер: Марио Бава
    В ролях: Риккардо Куччолла, Дон Бэки, Лиа Ландер, Морис Поли, Джордж Истмен, Мария Фаббри, Эрика Дарио, Луиджи Антонио Гуэрра, Франческо Феррини, Эмилио Бонуччи

    О фильме: Четверо преступников нападают на инкассатора, привезшего месячную зарплату в институт. Полиция убивает одного из нападавших, но троим удаётся захватить в заложницы двух девушек на подземной автостоянке. На требования полиции сложить оружие бандиты убивают одну девушку и обещают убить другую, если их не пропустят. Полиция идёт на уступки, в результате чего бандиты захватывают машину с водителем, требуя вывезти их из города. Ситуация осложняется тем, что в машине находится смертельно больной ребенок, которому требуется срочная операция…

    Качество: BDRip 720p
    Видео: MPEG-4 AVC, 5469 Кбит/с, 1280x694
    Аудио: Русский (DTS, 2 ch, 768 Кбит/с), (AC3, 2 ch, 192 Кбит/с), итальянский (AC3, 2 ch, 192 Кбит/с)
    Размер: 4.50 ГБ
    Продолжительность: 01:35:38
    Перевод: Авторский (Андрей Дольский)
    Субтитры: Английские

    Сравнение с исходником



    Из отзывов...
    cyberlaw

    Галерея маньяков: Дикие псы Марио Бава

    На первый взгляд эта картина совсем не о маньяках. Фильм рассказывает о насилии и его роли в современной жизни. С самых первых минут зритель оказывается втянутым в жёсткое и резкое повествование — мы следим за грабителями банка, которые в спешке отстреливаются от полиции и берут заложников.
    Удивительно, но Марио Бава показал нам такое ограбление, какое описывалось в Бешеных псах и От заката до рассвета. Вообще, при просмотре я несколько раз вспоминал эти картины Тарантино и Родригеса — уж слишком много цитат.
    Далее о сюжете лучше умолчать, чтобы не уменьшать зрителю впечатление от просмотра. Достаточно просто сказать, что большая часть фильма пройдет в автомобиле.
    Картина Марио Бава по-настоящему непредсказуема. До самых последних минут непонятно, чем же всё закончится. Принимая во внимание колоссальный темп, набранный режиссёром, фильм смотрится на одном дыхании. Важную роль играет и корректный хронометраж...
    ...В итоге: жесткий, напряженный боевик, который не может не натолкнуть на философские беседы о роли насилия в современном обществе. Один из лучших фильмов 1974 года, замечательная режиссура от Марио Бава и всех актёров.

    10 из 10

    Кинопоиск
    Лог х264
    ---Information 15.08.2013 9:31:31 avs info: 1280x694p 1:1 @ 24000/1001 fps (cfr)
    ---Information 15.08.2013 9:31:31 x264 info: using SAR=1/1
    ---Information 15.08.2013 9:31:31 x264 info: using cpu capabilities: MMX2 SSE2Fast SSSE3 SSE4.2
    ---Information 15.08.2013 9:31:31 x264 info: profile High, level 4.1
    ---Information 15.08.2013 20:49:41 x264 info: frame I:847 Avg QP:19.06 size: 89890
    ---Information 15.08.2013 20:49:41 x264 info: frame P:27619 Avg QP:20.17 size: 51524
    ---Information 15.08.2013 20:49:41 x264 info: frame B:109113 Avg QP:22.18 size: 22952
    ---Information 15.08.2013 20:49:41 x264 info: consecutive B-frames: 1.1% 1.2% 3.7% 20.0% 20.0% 46.8% 5.8% 1.0% 0.4%
    ---Information 15.08.2013 20:49:41 x264 info: mb I I16..4: 2.6% 89.7% 7.7%
    ---Information 15.08.2013 20:49:41 x264 info: mb P I16..4: 0.7% 26.1% 1.0% P16..4: 36.5% 25.7% 9.3% 0.0% 0.0% skip: 0.8%
    ---Information 15.08.2013 20:49:41 x264 info: mb B I16..4: 0.1% 2.7% 0.1% B16..8: 46.2% 14.4% 3.1% direct:12.3% skip:21.2% L0:44.8% L1:47.8% BI: 7.4%
    ---Information 15.08.2013 20:49:41 x264 info: 8x8 transform intra:93.9% inter:71.2%
    ---Information 15.08.2013 20:49:41 x264 info: coded y,uvDC,uvAC intra: 96.3% 81.8% 39.1% inter: 49.1% 34.6% 1.0%
    ---Information 15.08.2013 20:49:41 x264 info: i16 v,h,dc,p: 25% 21% 13% 41%
    ---Information 15.08.2013 20:49:41 x264 info: i8 v,h,dc,ddl,ddr,vr,hd,vl,hu: 10% 8% 7% 10% 14% 13% 14% 11% 14%
    ---Information 15.08.2013 20:49:41 x264 info: i4 v,h,dc,ddl,ddr,vr,hd,vl,hu: 12% 8% 2% 8% 15% 15% 15% 11% 14%
    ---Information 15.08.2013 20:49:41 x264 info: i8c dc,h,v,p: 38% 26% 18% 18%
    ---Information 15.08.2013 20:49:41 x264 info: Weighted P-Frames: Y:4.8% UV:2.0%
    ---Information 15.08.2013 20:49:41 x264 info: ref P L0: 38.6% 12.0% 19.7% 7.4% 6.9% 4.7% 4.8% 2.8% 3.0% 0.3% 0.0%
    ---Information 15.08.2013 20:49:41 x264 info: ref B L0: 74.6% 11.1% 5.4% 3.1% 2.2% 2.0% 1.1% 0.5%
    ---Information 15.08.2013 20:49:41 x264 info: ref B L1: 94.9% 5.1%
    ---Information 15.08.2013 20:49:41 x264 info: kb/s:5581.67
    ---Information 15.08.2013 20:49:41 encoded 137579 frames, 3.38 fps, 5581.67 kb/s
    --Information 15.08.2013 20:49:42 Final statistics
    ---Information 15.08.2013 20:49:42 Constant Quality Mode: Quality 19 computed...
    ---Information 15.08.2013 20:49:42 Video Bitrate Obtained (approximate): 5583 kbit/s
    --Information 15.08.2013 20:49:42 MediaInfo
    ---Information File: E:RipDikie.psy.1974.x264.BDRipDikie.psy.1974.x264.BDRip.720p.mkv
    MediaInfo
    Общее
    Полное имя : E:VideoDikie.psy.1974.x264.BDRip.720pDikie.psy.1974.AVO.rus.А.Дольский.dts
    Формат : DTS
    Формат/Информация : Digital Theater Systems
    Размер файла : 525 Мбайт
    Продолжительность : 1 ч. 35 м.
    Режим общего битрейта : Постоянный
    Общий поток : 768 Кбит/сек

    Аудио
    Формат : DTS
    Формат/Информация : Digital Theater Systems
    Режим : 16
    Параметр Endianness формата : Big
    Продолжительность : 1 ч. 35 м.
    Вид битрейта : Постоянный
    Битрейт : 768 Кбит/сек
    Каналы : 2 канала
    Расположение каналов : Front: L R
    Частота : 48,0 КГц
    Битовая глубина : 24 бит
    Метод сжатия : С потерями
    Размер потока : 525 Мбайт (100%)

    Общее
    Полное имя : E:VideoDikie.psy.1974.x264.BDRip.720pDikie.psy.1974.eng.srt
    Размер файла : 146 Кбайт

    Общее
    Полное имя : E:VideoDikie.psy.1974.x264.BDRip.720pDikie.psy.1974.Original.ita.ac3
    Формат : AC-3
    Формат/Информация : Audio Coding 3
    Размер файла : 131 Мбайт
    Продолжительность : 1 ч. 35 м.
    Режим общего битрейта : Постоянный
    Общий поток : 192 Кбит/сек

    Аудио
    Формат : AC-3
    Формат/Информация : Audio Coding 3
    Расширение режима : CM (complete main)
    Параметр Endianness формата : Big
    Продолжительность : 1 ч. 35 м.
    Вид битрейта : Постоянный
    Битрейт : 192 Кбит/сек
    Каналы : 2 канала
    Расположение каналов : Front: L R
    Частота : 48,0 КГц
    Битовая глубина : 16 бит
    Метод сжатия : С потерями
    Размер потока : 131 Мбайт (100%)

    Общее
    Уникальный идентификатор : 225457782702566888040090549103418329177 (0xA99D96E8D474AF8E98BAD43C109AC859)
    Полное имя : E:VideoDikie.psy.1974.x264.BDRip.720pDikie.psy.1974.x264.BDRip.720p.mkv
    Формат : Matroska
    Версия формата : Version 4 / Version 2
    Размер файла : 3,86 Гбайт
    Продолжительность : 1 ч. 35 м.
    Общий поток : 5776 Кбит/сек
    Название фильма : Дикие псы / Cani arrabbiati / 1974 / BDRip -- STarankov
    Дата кодирования : UTC 2013-08-15 13:51:38
    Программа кодирования : mkvmerge v6.3.0 (;You can;t stop me!;) built on Jun 28 2013 20:09:41
    Библиотека кодирования : libebml v1.3.0 libmatroska v1.4.0

    Видео
    Идентификатор : 1
    Формат : AVC
    Формат/Информация : Advanced Video Codec
    Профиль формата : High@L4.1
    Параметр CABAC формата : Да
    Параметр ReFrames формата : 9 кадров
    Идентификатор кодека : V_MPEG4/ISO/AVC
    Продолжительность : 1 ч. 35 м.
    Битрейт : 5469 Кбит/сек
    Ширина : 1280 пикселей
    Высота : 694 пикселя
    Соотношение сторон : 1,85:1
    Режим частоты кадров : Постоянный
    Частота кадров : 23,976 кадра/сек
    Цветовое пространство : YUV
    Субдискретизация насыщенности : 4:2:0
    Битовая глубина : 8 бит
    Тип развёртки : Прогрессивная
    Бит/(Пиксели*Кадры) : 0.257
    Размер потока : 3,65 Гбайт (95%)
    Библиотека кодирования : x264 core 135 r2345 f0c1c53
    Залил: msltel
    Размер: 4.50 GB (4831354767 Bytes)

    загрузка...
    Рейтинг →
     (голосов: 1, оценка 5/5, голосовать можно 1 раз )

    Другие торренты по теме:



      Комментарии (0):

      Информация

      Информация

        Посетители, находящиеся в группе Гости, не могут оставлять комментарии в данной новости.

        ↓ Меню



        ↓ Опрос

        А Вы добавили сайт в закладки?
        Да
        Не


        Top 10 за неделю (Фильмы)