.
Авторизация | Регистрация
» » Долгая дорога к отваге / You xia qing (1984) DVDRip от ikusha76 торрент скачать бесплатно




    Долгая дорога к отваге / You xia qing (1984) DVDRip от ikusha76 торрент скачать бесплатно

    Опубликовал: Админ | Дата: 27-02-2015, 11:09 | Просмотров: 359



    Информация о фильме
    Название: Долгая дорога к отваге
    Оригинальное название: You xia qing
    Год выхода: 1984
    Жанр: боевые искусства
    Режиссер: Ланг Ят Синг
    В ролях: Кенни Хо, Кара Хуи, Розамунд Кван, Джэйсон Паи Пиао, Тиен Шенг Ланг, Лили Лай, Чен Куан Тай, Yuet Yue Chan, Хунг Чен, Shao-chia Chen

    О фильме:
    Люди Лэн Тянь Лея похищают девушек. Молодой боец Мэн Фэй защищает от нападения людей Лэна Му Вань Эр — одну из важных особ в секте дракона. Вскоре Мэн Фэй спасает и другую девушку — Ли Сай Нань, но она, в отличие от Вань Эр, совсем не рада, что её спасли. Она, как оказывается, нарочно хотела проникнуть в покои Лэна, убить его и тем самым отомстить за смерть своих родителей. Поэтому она прикинулась той, которую ищет Лэн, а ищет он свою дочь, которую двадцать лет назад приютил у себя глава секты дракона. Эта интрига завораживает Мэн Фэя, и он решает помочь обеим девушкам.



    Страна: Гонконг
    Студия: Shaw Brothers
    Продолжительность: 01:28:21
    Перевод: Любительский одноголосый закадровый (Jet)

    Файл
    Кодек: XviD
    Качество: DVDRip
    Видео: 688x288, 23.976 fps, ~1041 kbps avg, 0.22 bit/pixel
    Звук: 48 kHz, MPEG Layer 3, 2 ch, ~128.00 kbps avg
    Субтитры: Нет

    MI
    Формат : AVI
    Формат/Информация : Audio Video Interleave
    Размер файла : 745 Мбайт
    Продолжительность : 1 ч. 28 м.
    Общий поток : 1179 Кбит/сек
    Режиссёр : bm11
    Программа кодирования : VirtualDubMod 1.5.10.2 (build 2540/release)

    Видео
    Идентификатор : 0
    Формат : MPEG-4 Visual
    Профиль формата : Advanced Simple@L5
    Параметр BVOP формата : 2
    Параметр QPel формата : Нет
    Параметр GMC формата : Без точки перехода
    Параметр матрицы формата : Выборочная
    Идентификатор кодека : XVID
    Идентификатор кодека/Подсказка : XviD
    Продолжительность : 1 ч. 28 м.
    Битрейт : 1042 Кбит/сек
    Ширина : 688 пикселей
    Высота : 288 пикселей
    Соотношение сторон : 2,40:1
    Частота кадров : 23,976 кадра/сек
    Цветовое пространство : YUV
    Субдискретизация насыщенности : 4:2:0
    Битовая глубина : 8 бит
    Тип развёртки : Прогрессивная
    Метод сжатия : С потерями
    Бит/(Пиксели*Кадры) : 0.219
    Размер потока : 658 Мбайт (88%)
    Библиотека кодирования : XviD 65

    Аудио
    Идентификатор : 1
    Формат : MPEG Audio
    Версия формата : Version 1
    Профиль формата : Layer 3
    Режим : Joint stereo
    Расширение режима : MS Stereo
    Идентификатор кодека : 55
    Идентификатор кодека/Подсказка : MP3
    Продолжительность : 1 ч. 28 м.
    Вид битрейта : Постоянный
    Битрейт : 128 Кбит/сек
    Каналы : 2 канала
    Частота : 48,0 КГц
    Метод сжатия : С потерями
    Размер потока : 80,9 Мбайт (11%)
    Выравнивание : Соединение по промежуткам
    Продолжительность промежутка : 42 мс. (1,00 видеокадр)
    Время предзагрузки промежутка : 504 мс.

    Скриншоты

    Залил: ikusha76
    Размер: 744.97 MB (781158400 Bytes)
    загрузка...
    Рейтинг →
     (голосов: 1, оценка 4/5, голосовать можно 1 раз )

    Другие торренты по теме:



      Комментарии (0):

      Информация

      Информация

        Посетители, находящиеся в группе Гости, не могут оставлять комментарии в данной новости.

        ↓ Меню



        ↓ Опрос

        А Вы добавили сайт в закладки?
        Да
        Не


        Top 10 за неделю (Фильмы)