.
Авторизация | Регистрация
Хочешь лучшие торренты? Добавь свой email!
Добавить
» » Старое ружье / Le vieux fusil (1975) DVDRip от Youtracker торрент скачать бесплатно




    Старое ружье / Le vieux fusil (1975) DVDRip от Youtracker торрент скачать бесплатно

    Опубликовал: Админ | Дата: 27-02-2015, 11:09 | Просмотров: 374


    Страна: Франция, Германия (ФРГ)
    Производство: Les Productions Artistes Associes, Mercure Productions, TIT Filmproduktion GmbH
    Жанр: триллер, драма, военный
    Год выпуска: 1975
    Продолжительность: 01:37:21

    Перевод: Профессиональный (дублированный) Советский дубляж
    Оригинальная аудиодорожка: нет
    Cубтитры: нет

    Режиссер: Робер Энрико / Robert Enrico

    В ролях:
    Филип Нуаре, Роми Шнайдер, Жан Буа, Хоаким Хансен, Роберт Хоффманн, Карл Майкл Воглер, Каролин Бонхом, Кетрин Делапорте, Мадлен Озере...

    Роли дублировали:
    Владимир Трошин, Галина Чигинская, Александр Демьяненко, Владимир Карпенко, Елена Андерегг...

    Описание:
    Франция, 1944 год. Хирург местной больницы, помогающий Сопротивлению, отсылает жену и дочь в деревню, а когда приезжает их навестить, видит тела зверски убитых людей, среди которых его застреленная дочь и соженная из огнемета жена. Эсэсовцы же все еще были на месте расправы, празднуя победу местного значения. Тогда хирург достает старое ружье, и начинается возмездие — доктор отлично знал все уголки этого старинного, неприступного замка, а дома, как говорится, и стены помогают.
    Жестокая и пронзительная история о войне, о силе любви и о силе ненависти, о том, как нежный, заботливый, добрейший человек о одночасье может стать беспощадным мстителем.…



    Исходник: DVD9 R5
    Тип релиза: DVDRip
    Контейнер: AVI

    Видео:688x384 (16:9), 25 fps, XviD ~ 931 kbps avg, 0.141 bit/pixel
    Аудио: 48 kHz, MP3 2.0, 128 kbps

    Раздача от:
    MediaInfo

    Общее
    Полное имя : Staroe.ruzhe.1975.DVDRip-745_Youtracker_by_AVP Studio.avi
    Формат : AVI
    Формат/Информация : Audio Video Interleave
    Размер файла : 744 Мбайт
    Продолжительность : 1 ч. 37 м.
    Общий поток : 1069 Кбит/сек
    Программа кодирования : VirtualDubModRus 1.5.10.2 (build 2542/release)
    Библиотека кодирования : VirtualDubMod build 2542/release

    Видео
    Идентификатор : 0
    Формат : MPEG-4 Visual
    Профиль формата : Advanced Simple@L5
    Параметр BVOP формата : 1
    Параметр QPel формата : Нет
    Параметр GMC формата : Без точки перехода
    Параметр матрицы формата : Выборочная
    Идентификатор кодека : XVID
    Идентификатор кодека/Подсказка : XviD
    Продолжительность : 1 ч. 37 м.
    Битрейт : 931 Кбит/сек
    Ширина : 688 пикселей
    Высота : 384 пикселя
    Соотношение сторон : 16:9
    Частота кадров : 25,000 кадров/сек
    Цветовое пространство : YUV
    Субдискретизация насыщенности : 4:2:0
    Битовая глубина : 8 бит
    Тип развёртки : Прогрессивная
    Метод сжатия : С потерями
    Бит/(Пиксели*Кадры) : 0.141
    Размер потока : 648 Мбайт (87%)
    Библиотека кодирования : XviD 65

    Аудио
    Идентификатор : 1
    Формат : MPEG Audio
    Версия формата : Version 1
    Профиль формата : Layer 3
    Идентификатор кодека : 55
    Идентификатор кодека/Подсказка : MP3
    Продолжительность : 1 ч. 37 м.
    Вид битрейта : Постоянный
    Битрейт : 128 Кбит/сек
    Каналы : 2 канала
    Частота : 48,0 КГц
    Метод сжатия : С потерями
    Размер потока : 89,1 Мбайт (12%)
    Выравнивание : Соединение по промежуткам
    Продолжительность промежутка : 40 мс. (1,00 видеокадр)
    Время предзагрузки промежутка : 504 мс.
    Библиотека кодирования : L3.99r
    Залил: AVPStudio
    Размер: 744.27 MB (780421120 Bytes)

    загрузка...
    Рейтинг →
     (голосов: 1, оценка 3/5, голосовать можно 1 раз )

    Другие торренты по теме:

  • Старое ружье / Le vieux fusil (1975) DVDRip от Youtracker
  • Старое ружье / Le vieux fusil (1975) BDRip 720p скачать через торрент бесплатно
  • Старое ружье / Le Vieux Fusil (1975) HDRip-AVC от ExKinoRay
  • Старое ружье / Le Vieux Fusil (1975) BDRip 1080p скачать через торрент бесплатно
  • Старое ружье / Le Vieux Fusil (1975) DVDRip от MediaClub | КПК


    • Комментарии (0):

      Информация

      Информация

        Посетители, находящиеся в группе Гости, не могут оставлять комментарии в данной новости.

        ↓ Меню



        ↓ Опрос

        А Вы добавили сайт в закладки?
        Да
        Не


        Top 10 за месяц (Фильмы)