.
Авторизация | Регистрация
Хочешь лучшие торренты? Добавь свой email!
Добавить
» » Зеркальная маска / MirrorMask (2005) BDRip 1080p | P, P2 торрент скачать бесплатно




    Зеркальная маска / MirrorMask (2005) BDRip 1080p | P, P2 торрент скачать бесплатно

    Опубликовал: Админ | Дата: 27-02-2015, 11:09 | Просмотров: 372



    Название: Зеркальная маска
    Оригинальное название: MirrorMask
    Год выпуска: 2005
    Жанр: Фэнтези, драма, приключения, семейный
    Выпущено: Великобритания, США, Destination Films, Jim Henson Company The
    Режиссер: Дэйв МакКин
    В ролях: Стефани Леонидас, Джейсон Бэрри, Роб Брайдон, Джина МакКи, Дора Брайан, Стивен Фрай, Энди Хэмилтон, Саймон Харви, Ленни Генри, Роберт Ллевелин, Эрил Мэйнард, Ив Пирс, Ник Робсон, Виктория Уильямс, Рик Аллен, Джина Д’Анджело, Саймон Шофилд, Лина Йоханссон, Эмма Норис, Марк Тейт, Ричард Томпсон, Робин Томпсон, Айэйн Бэлами, Крис Батчелор, Стайан Карстенсен, Мартин Френс, Стюарт Холл, Дэйв Пауэлл, Расти Гофф, Керри Джей, Фиона Рейнард, Ник Дейнтон, Ник Джексон, Марк Перри, Кейт Роббинс, Стюарт Ст. Пол

    О фильме: Пятнадцатилетняя Хелена из семьи циркачей частенько мечтает о том, чтобы вырваться из этого окружения и зажить нормальной жизнью. После очередной ссоры с родителями, которые строят насчёт её будущего свои собственные планы, мать Хелены тяжко заболевает, и девочка винит в этом себя. В канун серьёзной операции, которую должны сделать матери, Хелене снится сон о странном мире, в котором обитают две королевы, причудливые создания и жители в масках. Однако не всё ладно в этой стране — белая королева тоже серьёзно болеет, и спасти её может лишь Зеркальная Маска, которую и придётся найти девушке. Со временем главная героиня начинает сомневаться в том, что на самом деле спит…

    Качество: BDRip 1080p
    Размер: 11.56 ГБ
    Продолжительность: 01:40:45

    Видео: MPEG-4 AVC, 14.0 Mбит/с, 1920x1036
    Аудио 1: русский, 48 kHz, AC3, 6 ch, 640 kbps avg, Профессиональный многоголосый, CEE
    Аудио 2: русский, 48 kHz, AC3, 6 ch, 640 kbps avg, Tycoon Профессиональный двухголосый
    Субтитры 1: русские (текст песни)

    Внешние файлы
    Аудио: английский, 48 kHz, AC3, 6 ch, 640 kbps avg, Оригинал
    Аудио: английский, 48 kHz, AC3, 2 ch, 192 kbps avg, комментарий режиссёра и сценариста
    Субтитры: русские (Tycoon)
    Субтитры: английские

    Сравнение с исходником



    Из отзывов...
    Uzon

    Действительно замечательный фильм. Свежие, оригинальные идеи. Фантазия у создателей временами просто зашкаливает. Замечательная игра актёров, особенно девочки, учитывая, что большинство съёмок она провела на голубом фоне. Спецэффекты и компьютерная графика - на высоте, несмотря на скромный бюджет и то, что всё делали недавние выпускники соответствующих заведений.
    Это один из немногочисленных проектов, которые делаются не ради денег. Посмотрите обязательно, и вы не будете разочарованы.

    9 из 10

    Кинопоиск
    Лог х264
    ---Information 17.08.2013 4:39:07 avs info: 1920x1036p 1:1 @ 24000/1001 fps (cfr)
    ---Information 17.08.2013 4:39:07 x264 info: using SAR=1/1
    ---Information 17.08.2013 4:39:07 x264 info: using cpu capabilities: MMX2 SSE2Fast SSSE3 SSE4.2
    ---Information 17.08.2013 4:39:07 x264 info: profile High, level 4.1
    ---Information 18.08.2013 1:02:52 x264 info: frame I:964 Avg QP:15.13 size:239303
    ---Information 18.08.2013 1:02:52 x264 info: frame P:29811 Avg QP:16.15 size:136893
    ---Information 18.08.2013 1:02:52 x264 info: frame B:114161 Avg QP:18.28 size: 56974
    ---Information 18.08.2013 1:02:52 x264 info: consecutive B-frames: 1.6% 1.6% 4.1% 26.2% 16.0% 29.3% 8.9% 10.2% 1.9%
    ---Information 18.08.2013 1:02:52 x264 info: mb I I16..4: 18.9% 71.1% 10.1%
    ---Information 18.08.2013 1:02:52 x264 info: mb P I16..4: 4.7% 31.8% 1.7% P16..4: 25.2% 23.5% 10.2% 0.0% 0.0% skip: 2.9%
    ---Information 18.08.2013 1:02:52 x264 info: mb B I16..4: 0.3% 4.4% 0.1% B16..8: 42.1% 18.1% 4.3% direct: 9.9% skip:20.8% L0:45.8% L1:43.8% BI:10.4%
    ---Information 18.08.2013 1:02:52 x264 info: 8x8 transform intra:85.5% inter:54.8%
    ---Information 18.08.2013 1:02:52 x264 info: coded y,uvDC,uvAC intra: 95.3% 74.2% 45.7% inter: 45.7% 27.8% 1.8%
    ---Information 18.08.2013 1:02:52 x264 info: i16 v,h,dc,p: 10% 4% 26% 60%
    ---Information 18.08.2013 1:02:52 x264 info: i8 v,h,dc,ddl,ddr,vr,hd,vl,hu: 9% 9% 20% 9% 11% 10% 10% 10% 12%
    ---Information 18.08.2013 1:02:52 x264 info: i4 v,h,dc,ddl,ddr,vr,hd,vl,hu: 10% 8% 6% 10% 15% 15% 14% 11% 12%
    ---Information 18.08.2013 1:02:52 x264 info: i8c dc,h,v,p: 43% 25% 19% 12%
    ---Information 18.08.2013 1:02:52 x264 info: Weighted P-Frames: Y:30.4% UV:16.5%
    ---Information 18.08.2013 1:02:52 x264 info: ref P L0: 48.6% 10.7% 23.3% 13.3% 4.0% 0.2%
    ---Information 18.08.2013 1:02:52 x264 info: ref B L0: 86.0% 11.1% 2.9%
    ---Information 18.08.2013 1:02:52 x264 info: ref B L1: 92.9% 7.1%
    ---Information 18.08.2013 1:02:52 x264 info: kb/s:14313.68
    ---Information 18.08.2013 1:02:52 encoded 144936 frames, 1.97 fps, 14313.68 kb/s
    --Information 18.08.2013 1:02:55 Final statistics
    ---Information 18.08.2013 1:02:55 Constant Quality Mode: Quality 18 computed...
    ---Information 18.08.2013 1:02:55 Video Bitrate Obtained (approximate): 14315 kbit/s
    --Information 18.08.2013 1:02:55 MediaInfo
    ---Information File: E:RipZerkalnaja.maska.2005.x264.BDRipZerkalnaja.maska.2005.x264.BDRip.1080p.mkv
    MediaInfo
    Общее
    Полное имя : E:VideoZerkalnaja.maska.2005.x264.BDRip.1080pZerkalnaja.maska.2005.Commentary.eng.Сценарист и режиссёр.ac3
    Формат : AC-3
    Формат/Информация : Audio Coding 3
    Размер файла : 138 Мбайт
    Продолжительность : 1 ч. 40 м.
    Режим общего битрейта : Постоянный
    Общий поток : 192 Кбит/сек

    Аудио
    Формат : AC-3
    Формат/Информация : Audio Coding 3
    Профиль формата : Dolby Digital
    Расширение режима : CM (complete main)
    Параметр Endianness формата : Big
    Продолжительность : 1 ч. 40 м.
    Вид битрейта : Постоянный
    Битрейт : 192 Кбит/сек
    Каналы : 2 канала
    Расположение каналов : Front: L R
    Частота : 48,0 КГц
    Битовая глубина : 16 бит
    Метод сжатия : С потерями
    Размер потока : 138 Мбайт (100%)

    Общее
    Полное имя : E:VideoZerkalnaja.maska.2005.x264.BDRip.1080pZerkalnaja.maska.2005.eng.srt
    Размер файла : 166 Кбайт

    Общее
    Полное имя : E:VideoZerkalnaja.maska.2005.x264.BDRip.1080pZerkalnaja.maska.2005.Original.eng.ac3
    Формат : AC-3
    Формат/Информация : Audio Coding 3
    Размер файла : 461 Мбайт
    Продолжительность : 1 ч. 40 м.
    Режим общего битрейта : Постоянный
    Общий поток : 640 Кбит/сек

    Аудио
    Формат : AC-3
    Формат/Информация : Audio Coding 3
    Расширение режима : CM (complete main)
    Параметр Endianness формата : Big
    Продолжительность : 1 ч. 40 м.
    Вид битрейта : Постоянный
    Битрейт : 640 Кбит/сек
    Каналы : 6 каналов
    Расположение каналов : Front: L C R, Side: L R, LFE
    Частота : 48,0 КГц
    Битовая глубина : 16 бит
    Метод сжатия : С потерями
    Размер потока : 461 Мбайт (100%)

    Общее
    Полное имя : E:VideoZerkalnaja.maska.2005.x264.BDRip.1080pZerkalnaja.maska.2005.rus.Tycoon.srt
    Размер файла : 170 Кбайт

    Общее
    Уникальный идентификатор : 204655232402603881354442847543471108192 (0x99F729FE42E81DC5B86958DDBE27F060)
    Полное имя : E:VideoZerkalnaja.maska.2005.x264.BDRip.1080pZerkalnaja.maska.2005.x264.BDRip.1080p.mkv
    Формат : Matroska
    Версия формата : Version 4 / Version 2
    Размер файла : 11,0 Гбайт
    Продолжительность : 1 ч. 40 м.
    Общий поток : 15,6 Мбит/сек
    Название фильма : Зеркальная маска / MirrorMask / 2005 / BDRip -- STarankov
    Дата кодирования : UTC 2013-08-18 07:50:46
    Программа кодирования : mkvmerge v6.3.0 (;You can;t stop me!;) built on Jun 28 2013 20:09:41
    Библиотека кодирования : libebml v1.3.0 libmatroska v1.4.0

    Видео
    Идентификатор : 1
    Формат : AVC
    Формат/Информация : Advanced Video Codec
    Профиль формата : High@L4.1
    Параметр CABAC формата : Да
    Параметр ReFrames формата : 4 кадра
    Идентификатор кодека : V_MPEG4/ISO/AVC
    Продолжительность : 1 ч. 40 м.
    Битрейт : 14,0 Мбит/сек
    Ширина : 1920 пикселей
    Высота : 1036 пикселей
    Соотношение сторон : 1,85:1
    Режим частоты кадров : Постоянный
    Частота кадров : 23,976 кадра/сек
    Цветовое пространство : YUV
    Субдискретизация насыщенности : 4:2:0
    Битовая глубина : 8 бит
    Тип развёртки : Прогрессивная
    Бит/(Пиксели*Кадры) : 0.294
    Размер потока : 9,86 Гбайт (90%)
    Библиотека кодирования : x264 core 135 r2345 f0c1c53
    Залил: msltel
    Размер: 11.56 GB (12413833414 Bytes)

    загрузка...
    Рейтинг →
     (голосов: 1, оценка 5/5, голосовать можно 1 раз )

    Другие торренты по теме:

  • Зеркальная маска / MirrorMask (2005) HDRip от Scarabey | Р


    • Комментарии (0):

      Информация

      Информация

        Посетители, находящиеся в группе Гости, не могут оставлять комментарии в данной новости.

        ↓ Меню



        ↓ Опрос

        А Вы добавили сайт в закладки?
        Да
        Не


        Top 10 за месяц (Фильмы)