.
Авторизация | Регистрация
» » Если бы я был тобой 2 / Se Eu Fosse Voce 2 (2009) DVDRip | P2 торрент скачать бесплатно




    Если бы я был тобой 2 / Se Eu Fosse Voce 2 (2009) DVDRip | P2 торрент скачать бесплатно

    Опубликовал: Админ | Дата: 27-02-2015, 11:09 | Просмотров: 487



    Год выпуска: 2009
    Страна: Бразилия
    Киностудии: Globo Filmes, Lereby Productions...

    Жанр: комедия
    Продолжительность: 01:37:48

    Перевод: Профессиональный (двухголосый)
    Оригинальная аудиодорожка: нет
    Субтитры: нет

    Режиссер: Дэниэл Фильу / Daniel Filho

    В ролях: Тони Рамос, Глория Пиреш, Carlos Bonow, Изабелль Драммонд, Ary Fontoura, Кассио Габус Мендес, Adriane Galisteu, Мария Глэдис, Мария Майя, Бернардо Мендез...

    Описание: Клаудио и Хелена находятся на грани разрыва отношений, и пока этого не случилось, должно произойти нечто такое, что помогло бы им лучше понять друг друга...




    Исходник: DVD5 R2 звук с русского пиратского диска
    Качество: DVDRip
    Формат: AVI

    Видео: 656x368 (16:9), 23.976 fps, XviD MPEG-4 ~927 kbps avg, 0.160 bit/pixel
    Аудио: 48 kHz, Dolby МР3, 2 ch, 128 kbps, русский

    Раздача от:
    MediaInfo

    Общее
    Полное имя : Esly.by.ya.byl.toboi.2.2009.P2.DVDRip.745MB_Youtracker_by_avproh.avi
    Формат : AVI
    Формат/Информация : Audio Video Interleave
    Размер файла : 745 Мбайт
    Продолжительность : 1 ч. 37 м.
    Общий поток : 1064 Кбит/сек
    Программа кодирования : VirtualDubModRus 1.5.10.2 (build 2542/release)
    Библиотека кодирования : VirtualDubMod build 2542/release

    Видео
    Идентификатор : 0
    Формат : MPEG-4 Visual
    Профиль формата : Advanced Simple@L5
    Параметр BVOP формата : 1
    Параметр QPel формата : Нет
    Параметр GMC формата : Без точки перехода
    Параметр матрицы формата : Выборочная
    Идентификатор кодека : XVID
    Идентификатор кодека/Подсказка : XviD
    Продолжительность : 1 ч. 37 м.
    Битрейт : 927 Кбит/сек
    Ширина : 656 пикселей
    Высота : 368 пикселей
    Соотношение сторон : 16:9
    Частота кадров : 23,976 кадра/сек
    Цветовое пространство : YUV
    Субдискретизация насыщенности : 4:2:0
    Битовая глубина : 8 бит
    Тип развёртки : Прогрессивная
    Метод сжатия : С потерями
    Бит/(Пиксели*Кадры) : 0.160
    Размер потока : 649 Мбайт (87%)
    Библиотека кодирования : XviD 65

    Аудио
    Идентификатор : 1
    Формат : MPEG Audio
    Версия формата : Version 1
    Профиль формата : Layer 3
    Режим : Joint stereo
    Расширение режима : MS Stereo
    Идентификатор кодека : 55
    Идентификатор кодека/Подсказка : MP3
    Продолжительность : 1 ч. 37 м.
    Вид битрейта : Постоянный
    Битрейт : 128 Кбит/сек
    Каналы : 2 канала
    Частота : 48,0 КГц
    Метод сжатия : С потерями
    Размер потока : 89,6 Мбайт (12%)
    Выравнивание : Соединение по промежуткам
    Продолжительность промежутка : 42 мс. (1,00 видеокадр)
    Время предзагрузки промежутка : 504 мс.

    Скриншоты



    Залил: avproh
    Размер: 745.07 MB (781258752 Bytes)
    загрузка...
    Рейтинг →
     (голосов: 1, оценка 3/5, голосовать можно 1 раз )

    Другие торренты по теме:

  • Дмитрий Семеник, Михаил Хасьминский - Выход есть! (суицид, как быть, если не хочется жить) (2010) PDF, DjVu, DOC, FB2 торрент скачать бесплатно
  • Если любить... как они / If in love... like them / Perhaps Love / A Special Promise (2007) TVRip-AVC от BTT-TEAM и AniFilm торрент скачать бесплатно
  • Хамилтон 2: только если это не касается вашей дочери / Hamilton 2: Unless Its About Your Daughter (2012) HDRip | L1 торрент скачать бесплатно
  • Если небо молчит (2010) SATRip от Files-x торрент скачать бесплатно
  • Если небо молчит (2010) DVB от Files-x торрент скачать бесплатно
  • Это правда, если я вру 2 / La verite si je mens! 2 (2001) HDTVRip от Rulya74 торрент скачать бесплатно
  • OST - Поймай толстуху, если сможешь / Identity Thief (2013) MP3 от Kulemina - Generalfilm торрент скачать бесплатно
  • Если хочешь хорошо провести время, звони… / For a Good Time, Call... (2012) BDRip 1080p торрент скачать бесплатно


    • Комментарии (0):

      Информация

      Информация

        Посетители, находящиеся в группе Гости, не могут оставлять комментарии в данной новости.

        ↓ Меню



        ↓ Опрос

        А Вы добавили сайт в закладки?
        Да
        Не


        Top 10 за неделю (Фильмы)