.
Авторизация | Регистрация
» » Зелёная кобра / Cobra Verde (1987) BDRip 1080p | L1 торрент скачать бесплатно




    Зелёная кобра / Cobra Verde (1987) BDRip 1080p | L1 торрент скачать бесплатно

    Опубликовал: Админ | Дата: 27-02-2015, 11:09 | Просмотров: 391



    Название: Зелёная кобра
    Оригинальное название: Cobra Verde
    Год выпуска: 1987
    Жанр: Драма, приключения
    Выпущено: Германия (ФРГ), Гана, Ghana Film Industry Corporation, Werner Herzog Filmproduktion, Zweites Deutsches Fernsehen (ZDF)
    Режиссер: Вернер Херцог
    В ролях: Клаус Кински, король Ампоу, Жозе Левгой, Сальваторе Базиле, Петер Берлинг, Гильермо Коронел, Нана Агьефи Кваме II, Нана Феду Абодо, Кофи Йеренкьи, Квеси Фасе

    О фильме: Авантюрист Франсиску Мануэл да Силва, работающий на оловянных приисках в Бразилии в начале XIX века, убив обидчика, становится бандитом Кобра Верде. Скрываясь от наказания, он попадает в Байию, где, будучи надсмотрщиком на плантациях дона Октавиу Коутинью, соблазняет его дочерей. Разъярённый хозяин отправляет Зелёную Кобру в Западную Африку, в Дагомею на верную смерть, поскольку безумный вождь Дагомеи убивает всех белых. Но предприимчивому Франсиску удаётся не только наладить торговлю рабами, но и победить войско вождя.

    Качество: BDRip 1080p
    Видео: MPEG-4 AVC, 13.6 Mбит/с, 1920x1036
    Аудио: Русский (AC3, 2 ch, 192 Кбит/с), английский (DTS, 2 ch, 768 Кбит/с), немецкий (DTS, 6 ch, 1509 Кбит/с)
    Размер: 12.6 ГБ
    Продолжительность: 01:50:21
    Перевод: Любительский одноголосый
    Субтитры: Русские, английские

    Сравнение с исходником



    Из отзывов...
    Roger Harrison

    Сила на коротком поводке

    Фильм Кобра Верде - последняя совместная работа Клауса Кински и режиссёра Вернера Херцога. После этого фильма Кински сказал: Меня больше нет.
    Кинолента показывает как власть имущие способны иссушить и погубить тех, кто сильнее, но чьё сердце открыто и благородно. Суровый и сильный одиночка стремится к своей мечте. Ради её достижения он не останавливается ни перед чем. Он не боится смерти, не боится замарать руки. Его даже не гнетёт его одинокий путь. Он так с ним смирился, что его не страшит то, что у него нет ни друзей, ни родных. Одиночка, который бредёт по дороге жизни. Он смотрит лишь только вперёд, не замечая, что в его спину уже направлены копья. Он видит только цель, к которой он движется. Но дойдёт ли он?
    Люди пользуются силой и благородством, пользуются теми, кто привык держать слово. В какой-то степени, эта кинолента о том, как силу можно держать на коротком поводке. А потом им же начать душить, когда она исчерпает себя.

    Кинопоиск
    Лог х264
    ---Information 24.08.2013 5:17:26 avs info: 1920x1036p 1:1 @ 24000/1001 fps (cfr)
    ---Information 24.08.2013 5:17:26 x264 info: using SAR=1/1
    ---Information 24.08.2013 5:17:26 x264 info: using cpu capabilities: MMX2 SSE2Fast SSSE3 SSE4.2
    ---Information 24.08.2013 5:17:26 x264 info: profile High, level 4.1
    ---Information 25.08.2013 2:33:10 x264 info: frame I:813 Avg QP:21.05 size:214317
    ---Information 25.08.2013 2:33:10 x264 info: frame P:30980 Avg QP:22.28 size:121113
    ---Information 25.08.2013 2:33:10 x264 info: frame B:126967 Avg QP:24.66 size: 59534
    ---Information 25.08.2013 2:33:10 x264 info: consecutive B-frames: 0.9% 1.1% 4.1% 17.1% 14.6% 52.3% 6.5% 1.5% 2.1%
    ---Information 25.08.2013 2:33:10 x264 info: mb I I16..4: 10.4% 79.7% 9.9%
    ---Information 25.08.2013 2:33:10 x264 info: mb P I16..4: 4.6% 30.3% 2.1% P16..4: 34.1% 20.3% 7.7% 0.0% 0.0% skip: 0.9%
    ---Information 25.08.2013 2:33:10 x264 info: mb B I16..4: 0.6% 4.7% 0.2% B16..8: 44.7% 11.5% 2.9% direct:13.8% skip:21.6% L0:45.3% L1:46.2% BI: 8.4%
    ---Information 25.08.2013 2:33:10 x264 info: 8x8 transform intra:83.0% inter:70.8%
    ---Information 25.08.2013 2:33:10 x264 info: coded y,uvDC,uvAC intra: 86.8% 83.3% 46.4% inter: 44.6% 44.1% 8.6%
    ---Information 25.08.2013 2:33:10 x264 info: i16 v,h,dc,p: 16% 10% 32% 42%
    ---Information 25.08.2013 2:33:10 x264 info: i8 v,h,dc,ddl,ddr,vr,hd,vl,hu: 8% 7% 10% 10% 13% 13% 13% 12% 13%
    ---Information 25.08.2013 2:33:10 x264 info: i4 v,h,dc,ddl,ddr,vr,hd,vl,hu: 8% 5% 6% 11% 15% 16% 14% 13% 13%
    ---Information 25.08.2013 2:33:10 x264 info: i8c dc,h,v,p: 43% 23% 20% 14%
    ---Information 25.08.2013 2:33:10 x264 info: Weighted P-Frames: Y:2.9% UV:1.6%
    ---Information 25.08.2013 2:33:10 x264 info: ref P L0: 45.2% 12.2% 28.8% 13.1% 0.7% 0.0%
    ---Information 25.08.2013 2:33:10 x264 info: ref B L0: 87.7% 9.8% 2.6%
    ---Information 25.08.2013 2:33:10 x264 info: ref B L1: 93.9% 6.1%
    ---Information 25.08.2013 2:33:10 x264 info: kb/s:13876.05
    ---Information 25.08.2013 2:33:10 encoded 158760 frames, 2.07 fps, 13876.05 kb/s
    --Information 25.08.2013 2:33:20 Final statistics
    ---Information 25.08.2013 2:33:20 Constant Quality Mode: Quality 21 computed...
    ---Information 25.08.2013 2:33:20 Video Bitrate Obtained (approximate): 13877 kbit/s
    --Information 25.08.2013 2:33:20 MediaInfo
    ---Information File: E:RipKobra.Verde.1987.x264.BDRipKobra.Verde.1987.x264.BDRip.1080p.mkv
    MediaInfo
    Общее
    Полное имя : E:VideoKobra.Verde.1987.x264.BDRip.1080pKobra.Verde.1987.DUB.eng.dts
    Формат : DTS
    Формат/Информация : Digital Theater Systems
    Размер файла : 606 Мбайт
    Продолжительность : 1 ч. 50 м.
    Режим общего битрейта : Постоянный
    Общий поток : 768 Кбит/сек

    Аудио
    Формат : DTS
    Формат/Информация : Digital Theater Systems
    Режим : 16
    Параметр Endianness формата : Big
    Продолжительность : 1 ч. 50 м.
    Вид битрейта : Постоянный
    Битрейт : 768 Кбит/сек
    Каналы : 2 канала
    Расположение каналов : Front: L R
    Частота : 48,0 КГц
    Битовая глубина : 24 бит
    Метод сжатия : С потерями
    Размер потока : 606 Мбайт (100%)

    Общее
    Полное имя : E:VideoKobra.Verde.1987.x264.BDRip.1080pKobra.Verde.1987.eng.srt
    Размер файла : 96,2 Кбайт

    Общее
    Полное имя : E:VideoKobra.Verde.1987.x264.BDRip.1080pKobra.Verde.1987.Original.ger.dts
    Формат : DTS
    Формат/Информация : Digital Theater Systems
    Размер файла : 1,16 Гбайт
    Продолжительность : 1 ч. 50 м.
    Режим общего битрейта : Постоянный
    Общий поток : 1509 Кбит/сек

    Аудио
    Формат : DTS
    Формат/Информация : Digital Theater Systems
    Режим : 16
    Параметр Endianness формата : Big
    Продолжительность : 1 ч. 50 м.
    Вид битрейта : Постоянный
    Битрейт : 1509 Кбит/сек
    Каналы : 6 каналов
    Расположение каналов : Front: L C R, Side: L R, LFE
    Частота : 48,0 КГц
    Битовая глубина : 24 бит
    Метод сжатия : С потерями
    Размер потока : 1,16 Гбайт (100%)

    Общее
    Полное имя : E:VideoKobra.Verde.1987.x264.BDRip.1080pKobra.Verde.1987.rus.srt
    Размер файла : 77,1 Кбайт

    Общее
    Уникальный идентификатор : 231443433841689018107234373515144174356 (0xAE1E624BA520750A9F818D11B9F99B14)
    Полное имя : E:VideoKobra.Verde.1987.x264.BDRip.1080pKobra.Verde.1987.x264.BDRip.1080p.mkv
    Формат : Matroska
    Версия формата : Version 4 / Version 2
    Размер файла : 10,8 Гбайт
    Продолжительность : 1 ч. 50 м.
    Общий поток : 14,1 Мбит/сек
    Название фильма : Кобра Верде (Зелёная кобра) / Cobra Verde / 1987 / BDRip -- STarankov
    Дата кодирования : UTC 2013-08-25 03:48:55
    Программа кодирования : mkvmerge v6.3.0 (;You can;t stop me!;) built on Jun 28 2013 20:09:41
    Библиотека кодирования : libebml v1.3.0 libmatroska v1.4.0

    Видео
    Идентификатор : 1
    Формат : AVC
    Формат/Информация : Advanced Video Codec
    Профиль формата : High@L4.1
    Параметр CABAC формата : Да
    Параметр ReFrames формата : 4 кадра
    Идентификатор кодека : V_MPEG4/ISO/AVC
    Продолжительность : 1 ч. 50 м.
    Битрейт : 13,6 Мбит/сек
    Ширина : 1920 пикселей
    Высота : 1036 пикселей
    Соотношение сторон : 1,85:1
    Режим частоты кадров : Постоянный
    Частота кадров : 23,976 кадра/сек
    Цветовое пространство : YUV
    Субдискретизация насыщенности : 4:2:0
    Битовая глубина : 8 бит
    Тип развёртки : Прогрессивная
    Бит/(Пиксели*Кадры) : 0.285
    Размер потока : 10,5 Гбайт (97%)
    Библиотека кодирования : x264 core 135 r2345 f0c1c53
    Залил: msltel
    Размер: 12.60 GB (13530487757 Bytes)

    загрузка...
    Рейтинг →
     (голосов: 1, оценка 5/5, голосовать можно 1 раз )

    Другие торренты по теме:

  • Зелёная кобра / Cobra Verde (1987) BDRip 720p | L1 торрент скачать бесплатно


    • Комментарии (0):

      Информация

      Информация

        Посетители, находящиеся в группе Гости, не могут оставлять комментарии в данной новости.

        ↓ Меню



        ↓ Опрос

        А Вы добавили сайт в закладки?
        Да
        Не


        Top 10 за неделю (Фильмы)