.
Авторизация | Регистрация
Хочешь лучшие торренты? Добавь свой email!
Добавить
» » Пьяный тай-чи / Siu taai gik (1984) DVDRip от ikusha76 | L1 торрент скачать бесплатно




    Пьяный тай-чи / Siu taai gik (1984) DVDRip от ikusha76 | L1 торрент скачать бесплатно

    Опубликовал: Админ | Дата: 27-02-2015, 11:09 | Просмотров: 372



    Информация о фильме
    Название: Пьяный тай-чи
    Оригинальное название: Siu taai gik
    Год выхода: 1984
    Жанр: боевые искусства
    Режиссер: Юэнь Ву-Пин
    В ролях: Донни Ен, Чеунг-Ян Юэнь, Лидия Сум, Шун-Йи Юэнь, Мэнди Чан, Ят Чор Юэнь, Дон Вонг, Чун Кай Чунг, Чанг Хсян, Вонг Кин-Ми

    О фильме:
    Действие разворачивается в начале века, и главный герой — младший сын в семье местного кулака. Папаша обожает своего младшенького, одевая его и наставляя на путь истинный по полной программе, в то же время заставляя старшего вкалывать с утра до ночи на благо брата. Тем не менее, братья любят друг друга и постоянно вместе. Все меняется, когда вдвоем они срывают план сыночка местного богатея поиздеваться над ними, обратив козни недоросля против него самого.



    Страна: Китай, Гонконг
    Студия: Dragons Group Film co., LTD.
    Продолжительность: 01:26:38
    Перевод: Любительский одноголосый закадровый

    Файл
    Кодек: XviD
    Качество: DVDRip
    Видео: 720x368. fps: 25,00. Битрейт: 2198 Kbps. 0,34 b/px.
    Звук: AC3. CH: 2. 48000 Hz. Битрейт: 192 Kbps.
    Субтитры: нет

    MI
    Формат : AVI
    Формат/Информация : Audio Video Interleave
    Размер файла : 1,45 Гбайт
    Продолжительность : 1 ч. 26 м.
    Общий поток : 2400 Кбит/сек
    Программа кодирования : VirtualDubMod 1.5.10.2 (build 2540/release)
    Библиотека кодирования : VirtualDubMod build 2540/release

    Видео
    Идентификатор : 0
    Формат : MPEG-4 Visual
    Профиль формата : Advanced Simple@L5
    Параметр BVOP формата : 1
    Параметр QPel формата : Нет
    Параметр GMC формата : Без точки перехода
    Параметр матрицы формата : Default (H.263)
    Идентификатор кодека : XVID
    Идентификатор кодека/Подсказка : XviD
    Продолжительность : 1 ч. 26 м.
    Битрейт : 2198 Кбит/сек
    Ширина : 720 пикселей
    Высота : 368 пикселей
    Соотношение сторон : 1,957
    Частота кадров : 25,000 кадров/сек
    Цветовое пространство : YUV
    Субдискретизация насыщенности : 4:2:0
    Битовая глубина : 8 бит
    Тип развёртки : Прогрессивная
    Метод сжатия : С потерями
    Бит/(Пиксели*Кадры) : 0.332
    Размер потока : 1,33 Гбайт (92%)
    Библиотека кодирования : XviD 1.2.0.dev47 (UTC 2006-11-01)

    Аудио
    Идентификатор : 1
    Формат : AC-3
    Формат/Информация : Audio Coding 3
    Расширение режима : CM (complete main)
    Параметр Endianness формата : Big
    Идентификатор кодека : 2000
    Продолжительность : 1 ч. 26 м.
    Вид битрейта : Постоянный
    Битрейт : 192 Кбит/сек
    Каналы : 2 канала
    Расположение каналов : Front: L R
    Частота : 48,0 КГц
    Битовая глубина : 16 бит
    Метод сжатия : С потерями
    Размер потока : 119 Мбайт (8%)
    Выравнивание : Разделение по промежуткам
    Продолжительность промежутка : 40 мс. (1,00 видеокадр)
    Время предзагрузки промежутка : 500 мс.

    Скриншоты

    Залил: ikusha76
    Размер: 1.45 GB (1559592960 Bytes)
    загрузка...
    Рейтинг →
     (голосов: 1, оценка 3/5, голосовать можно 1 раз )

    Другие торренты по теме:

  • Самый пьяный округ в мире / Lawless (2012) HDRip от Torrent-Xzona | КПК | А
  • OST - Самый пьяный округ в мире / Lawless Soundtrack (2012) MP3
  • Самый пьяный округ в мир / Lawless (2012) BDRip от HQCLUB | Лицензия
  • Пьяный мастер / Jui kuen (1978) DVDRip-AVC | A, P
  • Самый пьяный округ в мире / Lawless (2012) BDRip 720p от leonardo 59 Scarabey | Лицензия скачать через торрент бесплатно
  • Пусть говорят - Пьяный рейс (2013) HDTVRip от MediaClub скачать через торрент бесплатно
  • Пьяный рассвет / Tequila Sunrise (1988) HDRip от Leon-masl скачать через торрент бесплатно
  • Пьяный рассвет / Tequila Sunrise (1988) BDRip 720p от MediaClub | D, P, P2, A


    • Комментарии (0):

      Информация

      Информация

        Посетители, находящиеся в группе Гости, не могут оставлять комментарии в данной новости.

        ↓ Меню



        ↓ Опрос

        А Вы добавили сайт в закладки?
        Да
        Не


        Top 10 за месяц (Фильмы)