.
Авторизация | Регистрация
» » 14 амазонок / Shi si nu ying hao (1972) DVDRip от ikusha76 торрент скачать бесплатно




    14 амазонок / Shi si nu ying hao (1972) DVDRip от ikusha76 торрент скачать бесплатно

    Опубликовал: Админ | Дата: 27-02-2015, 11:09 | Просмотров: 443



    Информация о фильме
    Название: 14 амазонок
    Оригинальное название: Shi si nu ying hao
    Год выхода: 1972
    Жанр: боевые искусства
    Режиссеры: Кенг Чэн, Шао-юнг Тунг
    В ролях: Хуа Чунг, Мей Шенг Фэн, Чун Синь Хуан, Фенг Тиен, Хсие Вонг, Джеймс Нэм, Чинг Тиен, Пол Чун, Лье Ло, Айви Линг

    О фильме:
    Героическая эпопея о четырнадцати амазонках, остановивших варваров из Западного Хся и защитивших империю Cунь. Четырнадцать храбрых воительниц своей доблестью, проявленной в жестоких битвах и готовностью к самопожертвованию оставили неизгладимый след в истории.



    Страна: Китай, Гонконг
    Студия: Shaw Brothers
    Продолжительность: 01:57:08
    Перевод: Любительский одноголосый закадровый (Jet)

    Файл
    Кодек: XviD
    Качество: DVDRip
    Видео: 656x288, 23.976 fps, ~1590 kbps avg, 0.35 bit/pixel
    Звук: 48 kHz, AC3 Dolby Digital, 2/0 (L,R) ch, ~192 kbps
    Субтитры: нет

    MI
    Формат : AVI
    Формат/Информация : Audio Video Interleave
    Размер файла : 1,47 Гбайт
    Продолжительность : 1 ч. 57 м.
    Общий поток : 1792 Кбит/сек
    Программа кодирования : VirtualDubMod 1.5.10.3 | www.virtualdub-fr.org || (build 2550/release)
    Библиотека кодирования : VirtualDubMod build 2550/release

    Видео
    Идентификатор : 0
    Формат : MPEG-4 Visual
    Профиль формата : Advanced Simple@L5
    Параметр BVOP формата : 2
    Параметр QPel формата : Нет
    Параметр GMC формата : Без точки перехода
    Параметр матрицы формата : Default (MPEG)
    Идентификатор кодека : XVID
    Идентификатор кодека/Подсказка : XviD
    Продолжительность : 1 ч. 57 м.
    Битрейт : 1591 Кбит/сек
    Ширина : 656 пикселей
    Высота : 288 пикселей
    Соотношение сторон : 2,25:1
    Частота кадров : 23,976 кадра/сек
    Цветовое пространство : YUV
    Субдискретизация насыщенности : 4:2:0
    Битовая глубина : 8 бит
    Тип развёртки : Прогрессивная
    Метод сжатия : С потерями
    Бит/(Пиксели*Кадры) : 0.351
    Размер потока : 1,30 Гбайт (89%)
    Библиотека кодирования : XviD 1.2.1 (UTC 2008-12-04)

    Аудио
    Идентификатор : 1
    Формат : AC-3
    Формат/Информация : Audio Coding 3
    Расширение режима : CM (complete main)
    Параметр Endianness формата : Big
    Идентификатор кодека : 2000
    Продолжительность : 1 ч. 57 м.
    Вид битрейта : Постоянный
    Битрейт : 192 Кбит/сек
    Каналы : 2 канала
    Расположение каналов : Front: L R
    Частота : 48,0 КГц
    Битовая глубина : 16 бит
    Метод сжатия : С потерями
    Размер потока : 161 Мбайт (11%)
    Выравнивание : Разделение по промежуткам
    Продолжительность промежутка : 42 мс. (1,00 видеокадр)
    Время предзагрузки промежутка : 500 мс.

    Скриншоты

    Залил: ikusha76
    Размер: 1.47 GB (1574717440 Bytes)
    загрузка...
    Рейтинг →
     (голосов: 1, оценка 4/5, голосовать можно 1 раз )

    Другие торренты по теме:

  • Сокровище Амазонки / The Rundown (2003) BDRip 1080p от FREEISLAND торрент скачать бесплатно
  • Президент и Амазонка - Коллекция (1996-2001) FLAC торрент скачать бесплатно
  • Амазонка в огне / Fire on the Amazon (1993) DVDRip торрент скачать бесплатно
  • Удивительная Амазонка: Южная Америка / Faszination Amazonas (2012) DVDRip-AVC от Torrent-Xzona торрент скачать бесплатно
  • Сексмиссия / Новые амазонки / Seksmisja (1983) DVD5 торрент скачать бесплатно
  • Сексмиссия / Новые амазонки / Seksmisja (1983) HDTV 1080i торрент скачать бесплатно
  • 14 амазонок / Fourteen amazons / Shi si nu ying hao (1972) DVDRip от AndrewWhite | A торрент скачать бесплатно
  • Сексмиссия / Новые Амазонки / Seksmisja (1983) HDTVRip-AVC от New-Team скачать через торрент бесплатно


    • Комментарии (0):

      Информация

      Информация

        Посетители, находящиеся в группе Гости, не могут оставлять комментарии в данной новости.

        ↓ Меню



        ↓ Опрос

        А Вы добавили сайт в закладки?
        Да
        Не


        Top 10 за неделю (Фильмы)