.
Авторизация | Регистрация
» » Дрожь земли 2: Повторный удар / Tremors II: Aftershocks (1996) BDRip 1080p от Youtracker торрент скачать бесплатно




    Дрожь земли 2: Повторный удар / Tremors II: Aftershocks (1996) BDRip 1080p от Youtracker торрент скачать бесплатно

    Опубликовал: Админ | Дата: 27-02-2015, 11:09 | Просмотров: 410



    Страна: США
    Жанр: ужасы, фантастика, боевик, триллер, комедия
    Год выпуска: 1996

    Продолжительность: 01:39:28

    Перевод: Профессиональный (многоголосый, закадровый) Авторский (Володарский Леонид) Авторский (Живов Юрий) Оригинальный
    Субтитры: русские, английские

    Режиссер: С.С. Уилсон / S.S. Wilson

    В ролях:

    Описание: Гигантские черви грабоиды возвращаются, чтобы превратить Землю в большой шведский стол. Пока что древние хищники из прекембрийского периода довольствуются случайными странниками и рабочими, оказавшимися в мексиканской пустыне.
    Но аппетиты тварей растут с каждым днем. Бизнесмен Карлос Ортега решает положить конец беспределу гигантских червей и отправляется в штат Невада на поиски Эрла Бассета, того самого смельчака, которому удалось убить нескольких червей...


    MPAA: PG-13 - Детям до 13 лет просмотр не желателен

    Качество: BDRip 1080p | SAMPLE
    Контейнер: MKV
    Видео: AVC, 1920x1040 (16:9), 9500 kbps, 23,976 fps, 0,198 bpp
    Аудио №1: английский / DTS-HD / 2.0 / 48 kHz / 1554 kbps / 24 bit (Core: 2.0 / 48 kHz / 1510 kbps / 24 bit)
    Аудио №2: русский / AC3 / 2.0 / 48 kHz / 256 kbps / 16 bit || MVO
    Аудио №3: русский / AC3 / 2.0 / 48 kHz / 192 kbps / 16 bit || AVO
    Аудио №4: русский / AC3 / 2.0 / 48 kHz / 192 kbps / 16 bit || AVO
    Навигация по главам: есть

    Скриншоты

    Media Info

    Общее
    Уникальный идентификатор : 231770436407497291866326863827524428044 (0xAE5D5CC449442825A9E11D3712ACA10C)
    Полное имя : E:BDTremors2.1996.BDRip.1080p.Youtracker.mkv
    Формат : Matroska
    Версия формата : Version 4 / Version 2
    Размер файла : 8,54 Гбайт
    Продолжительность : 1 ч. 39 м.
    Режим общего битрейта : Переменный
    Общий поток : 12,3 Мбит/сек
    Дата кодирования : UTC 2013-08-25 14:21:00
    Программа кодирования : mkvmerge v6.3.0 (;You can;t stop me!;) built on Jun 28 2013 20:09:41
    Библиотека кодирования : libebml v1.3.0 libmatroska v1.4.0
    Attachment : Yes

    Видео
    Идентификатор : 1
    Формат : AVC
    Формат/Информация : Advanced Video Codec
    Профиль формата : High@L4.1
    Параметр CABAC формата : Да
    Параметр ReFrames формата : 4 кадра
    Идентификатор кодека : V_MPEG4/ISO/AVC
    Продолжительность : 1 ч. 39 м.
    Номинальный битрейт : 9500 Кбит/сек
    Ширина : 1920 пикселей
    Высота : 1040 пикселей
    Соотношение сторон : 1,85:1
    Режим частоты кадров : Постоянный
    Частота кадров : 23,976 кадра/сек
    Цветовое пространство : YUV
    Субдискретизация насыщенности : 4:2:0
    Битовая глубина : 8 бит
    Тип развёртки : Прогрессивная
    Бит/(Пиксели*Кадры) : 0.198
    Библиотека кодирования : x264 core 132 r2310 76a5c3a
    Настройки программы : cabac=1 / ref=4 / deblock=1:-2:-2 / analyse=0x3:0x113 / me=umh / subme=10 / psy=1 / psy_rd=1.00:0.15 / mixed_ref=1 / me_range=24 / chroma_me=1 / trellis=2 / 8x8dct=1 / cqm=0 / deadzone=21,11 / fast_pskip=0 / chroma_qp_offset=-3 / threads=3 / lookahead_threads=1 / sliced_threads=0 / nr=0 / decimate=0 / interlaced=0 / bluray_compat=0 / constrained_intra=0 / bframes=9 / b_pyramid=2 / b_adapt=2 / b_bias=0 / direct=3 / weightb=1 / open_gop=0 / weightp=2 / keyint=240 / keyint_min=24 / scenecut=40 / intra_refresh=0 / rc_lookahead=60 / rc=2pass / mbtree=0 / bitrate=9500 / ratetol=1.0 / qcomp=1.00 / qpmin=0 / qpmax=69 / qpstep=4 / cplxblur=20.0 / qblur=0.5 / vbv_maxrate=40000 / vbv_bufsize=30000 / nal_hrd=none / ip_ratio=1.40 / pb_ratio=1.30 / aq=1:0.80
    Default : Да
    Forced : Нет

    Аудио #1
    Идентификатор : 2
    Формат : DTS
    Формат/Информация : Digital Theater Systems
    Профиль формата : MA / Core
    Режим : 16
    Параметр Endianness формата : Big
    Идентификатор кодека : A_DTS
    Продолжительность : 1 ч. 39 м.
    Вид битрейта : Переменный
    Битрейт : Неизвестно / 1509 Кбит/сек
    Каналы : 2 канала
    Расположение каналов : Front: L R
    Частота : 48,0 КГц
    Битовая глубина : 24 бит
    Метод сжатия : Без потерь / Lossy
    Заголовок : Оригинал
    Язык : English
    Default : Нет
    Forced : Нет

    Аудио #2
    Идентификатор : 3
    Формат : AC-3
    Формат/Информация : Audio Coding 3
    Расширение режима : CM (complete main)
    Параметр Endianness формата : Big
    Идентификатор кодека : A_AC3
    Продолжительность : 1 ч. 39 м.
    Вид битрейта : Постоянный
    Битрейт : 256 Кбит/сек
    Каналы : 2 канала
    Расположение каналов : Front: L R
    Частота : 48,0 КГц
    Битовая глубина : 16 бит
    Метод сжатия : С потерями
    Размер потока : 182 Мбайт (2%)
    Заголовок : MVO Премьер Видео Фильм
    Язык : Russian
    Default : Да
    Forced : Нет

    Аудио #3
    Идентификатор : 4
    Формат : AC-3
    Формат/Информация : Audio Coding 3
    Расширение режима : CM (complete main)
    Параметр Endianness формата : Big
    Идентификатор кодека : A_AC3
    Продолжительность : 1 ч. 39 м.
    Вид битрейта : Постоянный
    Битрейт : 192 Кбит/сек
    Каналы : 2 канала
    Расположение каналов : Front: L R
    Частота : 48,0 КГц
    Битовая глубина : 16 бит
    Метод сжатия : С потерями
    Размер потока : 137 Мбайт (2%)
    Заголовок : AVO Живов
    Язык : Russian
    Default : Нет
    Forced : Нет

    Аудио #4
    Идентификатор : 5
    Формат : AC-3
    Формат/Информация : Audio Coding 3
    Расширение режима : CM (complete main)
    Параметр Endianness формата : Big
    Идентификатор кодека : A_AC3
    Продолжительность : 1 ч. 39 м.
    Вид битрейта : Постоянный
    Битрейт : 192 Кбит/сек
    Каналы : 2 канала
    Расположение каналов : Front: L R
    Частота : 48,0 КГц
    Битовая глубина : 16 бит
    Метод сжатия : С потерями
    Размер потока : 137 Мбайт (2%)
    Заголовок : AVO Володарский
    Язык : Russian
    Default : Нет
    Forced : Нет

    Текст #1
    Идентификатор : 6
    Формат : PGS
    Режим смешивания : zlib
    Идентификатор кодека : S_HDMV/PGS
    Идентификатор кодека/Информация : The same subtitle format used on BDs/HD-DVDs
    Заголовок : русские
    Язык : Russian
    Default : Нет
    Forced : Нет

    Текст #2
    Идентификатор : 7
    Формат : PGS
    Режим смешивания : zlib
    Идентификатор кодека : S_HDMV/PGS
    Идентификатор кодека/Информация : The same subtitle format used on BDs/HD-DVDs
    Заголовок : английские
    Язык : English
    Default : Нет
    Forced : Нет

    Меню
    00:00:00.000 : en:
    00:03:46.851 : en:
    00:09:51.966 : en:
    00:19:11.692 : en:
    00:25:12.761 : en:
    00:31:29.387 : en:
    00:41:07.631 : en:
    00:57:19.436 : en:
    01:04:32.743 : en:
    01:12:43.776 : en:
    01:15:43.539 : en:
    01:20:47.133 : en:
    01:25:18.905 : en:
    01:27:41.923 : en:
    01:32:41.556 : en:
    01:35:44.864 : en:


    Раздача от:
    Размер: 8.54 GB (9165045196 Bytes)
    загрузка...
    Рейтинг →
     (голосов: 1, оценка 3/5, голосовать можно 1 раз )

    Другие торренты по теме:

  • Дрожь земли / Tremors (1990) BDRip-AVC торрент скачать бесплатно
  • Дрожь земли 4: Легенда начинается / Tremors 4: The Legend Begins (2004) BDRip 720p от MediaClub | P, A торрент скачать бесплатно
  • Дрожь земли 3 / Tremors 3: Back to Perfection (2001) BDRip 1080p от Youtracker торрент скачать бесплатно
  • Дрожь земли 4: Легенда начинается / Tremors 4: The Legend Begins (2004) BDRip 1080p от Youtracker торрент скачать бесплатно
  • Дрожь земли 4: Легенда начинается / Tremors 4: The Legend Begins (2004) BDRemux 1080p от MediaClub | P, A торрент скачать бесплатно
  • Дрожь земли 4: Легенда начинается / Tremors 4: The Legend Begins (2004) BDRip от MediaClub | P, A торрент скачать бесплатно
  • Дрожь земли 2: Повторный удар / Tremors II: Aftershocks (1996) BDRip от HQCLUB скачать через торрент бесплатно
  • Дрожь земли 3 / Tremors 3: Back to Perfection (2001) BDRip от HQCLUB скачать через торрент бесплатно


    • Комментарии (0):

      Информация

      Информация

        Посетители, находящиеся в группе Гости, не могут оставлять комментарии в данной новости.

        ↓ Меню



        ↓ Опрос

        А Вы добавили сайт в закладки?
        Да
        Не


        Top 10 за неделю (Фильмы)