.
Авторизация | Регистрация
Хочешь лучшие торренты? Добавь свой email!
Добавить
» » Поцелуй проклятой / Kiss of the Damned (2012) DVD9 от NovaLan торрент скачать бесплатно




    Поцелуй проклятой / Kiss of the Damned (2012) DVD9 от NovaLan торрент скачать бесплатно

    Опубликовал: Админ | Дата: 27-02-2015, 11:09 | Просмотров: 299



    Название: Поцелуй проклятой
    Оригинальное название: Kiss of the Damned
    Год выхода: 2012
    Жанр: Ужасы, драма
    Режиссер: Ксан Кассаветис
    В ролях: Жозефин Де Ла Буме, Майло Вентимилья, Роксана Мескида, Майкл Рапапорт, Райли Кио, Чинг Валдес, Анна Муглалис, Хуан Луис Асеведо, Джей Брэннан, Джонатан Кауэтт
    О фильме:
    Перед нами разворачивается любовная история между красивой вампиршей и смертным мужчиной. Долго сдерживаясь, героиня все же уступает искушению и пьет кровь любимого и не убивает его. Однако вскоре объявляется сестра вампирши, которая пытается положить конец чужеродным отношениям и спасти род вампиров от угрозы раскрытия.


    Страна: США, Bersin Pictures, Deerjen Films, Verisimilitude
    Продолжительность: 01:31:41
    Перевод: Любительский многоголосый OK!Prod / Любительский одноголосый (den904) / Любительский одноголосый (cmert)

    Кодек: MPEG-2
    Качество: DVD-9
    Видео: PAL 16:9 (720x576) VBR
    Звук: Русский (Dolby AC3, 2 ch), (Dolby AC3, 6 ch), английский (Dolby AC3, 6 ch)
    Субтитры: Русские, английские

    Релиз группы NovaLan
    Производство: Blu-Ray Remux DVD-9
    Автор релиза Sergei7721




    DVDInfo

    Title:
    Size: 6.56 Gb ( 6 882 749 KBytes ) - DVD-9
    Enabled regions: 1, 2, 3, 4, 5, 6, 7, 8

    VTS_01 :
    Play Length: 01:31:41 00:02:20
    Video: PAL 16:9 (720x576) VBR, Auto PanScan
    Audio:
    Russian (Dolby AC3, 2 ch)
    Russian (Dolby AC3, 6 ch)
    Russian (Dolby AC3, 2 ch)
    English (Dolby AC3, 6 ch)
    Subtitles:
    Russian
    English

    Menu Video:
    NTSC 4:3 (720x480) VBR
    Auto PanScan, Auto Letterboxed
    Menu English Language Unit :
    Root Menu

    MediaInfo

    Полное имя : D:Раздачи_DKiss.of.the.Damned.2012.DVD9.NovaLanVIDEO_TSVTS_01_1.VOB
    Формат : MPEG-PS
    Размер файла : 1024 Мбайт
    Продолжительность : 14 м.
    Режим общего битрейта : Переменный
    Общий поток : 9875 Кбит/сек

    Видео
    Идентификатор : 224 (0xE0)
    Формат : MPEG Video
    Версия формата : Version 2
    Профиль формата : Main@Main
    Параметр BVOP формата : Да
    Параметр матрицы формата : Выборочная
    Продолжительность : 14 м.
    Вид битрейта : Переменный
    Битрейт : 8399 Кбит/сек
    Максимальный битрейт : 8500 Кбит/сек
    Ширина : 720 пикселей
    Высота : 576 пикселей
    Соотношение сторон : 16:9
    Частота кадров : 25,000 кадров/сек
    Стандарт вещания : PAL
    Цветовое пространство : YUV
    Субдискретизация насыщенности : 4:2:0
    Битовая глубина : 8 бит
    Тип развёртки : Чересстрочная
    Порядок развёртки : Верхнее поле первое
    Метод сжатия : С потерями
    Бит/(Пиксели*Кадры) : 0.810
    Размер потока : 871 Мбайт (85%)

    Аудио #1
    Идентификатор : 189 (0xBD)-128 (0x80)
    Формат : AC-3
    Формат/Информация : Audio Coding 3
    Расширение режима : CM (complete main)
    Параметр Endianness формата : Big
    Режим смешивания : DVD-Video
    Продолжительность : 14 м.
    Вид битрейта : Постоянный
    Битрейт : 192 Кбит/сек
    Каналы : 2 канала
    Расположение каналов : Front: L R
    Частота : 48,0 КГц
    Битовая глубина : 16 бит
    Метод сжатия : С потерями
    Размер потока : 19,9 Мбайт (2%)

    Аудио #2
    Идентификатор : 189 (0xBD)-129 (0x81)
    Формат : AC-3
    Формат/Информация : Audio Coding 3
    Расширение режима : CM (complete main)
    Параметр Endianness формата : Big
    Режим смешивания : DVD-Video
    Продолжительность : 14 м.
    Вид битрейта : Постоянный
    Битрейт : 448 Кбит/сек
    Каналы : 6 каналов
    Расположение каналов : Front: L C R, Side: L R, LFE
    Частота : 48,0 КГц
    Битовая глубина : 16 бит
    Метод сжатия : С потерями
    Размер потока : 46,4 Мбайт (5%)

    Аудио #3
    Идентификатор : 189 (0xBD)-130 (0x82)
    Формат : AC-3
    Формат/Информация : Audio Coding 3
    Расширение режима : CM (complete main)
    Параметр Endianness формата : Big
    Режим смешивания : DVD-Video
    Продолжительность : 14 м.
    Вид битрейта : Постоянный
    Битрейт : 192 Кбит/сек
    Каналы : 2 канала
    Расположение каналов : Front: L R
    Частота : 48,0 КГц
    Битовая глубина : 16 бит
    Метод сжатия : С потерями
    Размер потока : 19,9 Мбайт (2%)

    Аудио #4
    Идентификатор : 189 (0xBD)-131 (0x83)
    Формат : AC-3
    Формат/Информация : Audio Coding 3
    Расширение режима : CM (complete main)
    Параметр Endianness формата : Big
    Режим смешивания : DVD-Video
    Продолжительность : 14 м.
    Вид битрейта : Постоянный
    Битрейт : 448 Кбит/сек
    Каналы : 6 каналов
    Расположение каналов : Front: L C R, Side: L R, LFE
    Частота : 48,0 КГц
    Битовая глубина : 16 бит
    Метод сжатия : С потерями
    Размер потока : 46,4 Мбайт (5%)

    Текст #1
    Идентификатор : 189 (0xBD)-32 (0x20)
    Формат : RLE
    Формат/Информация : Run-length encoding
    Режим смешивания : DVD-Video

    Текст #2
    Идентификатор : 189 (0xBD)-33 (0x21)
    Формат : RLE
    Формат/Информация : Run-length encoding
    Режим смешивания : DVD-Video

    Дополнительно
    Трейлер

    Скриншоты меню



    Релиз от:


    Залил: Sergei7721
    Размер: 6.56 GB (7047925760 Bytes)
    загрузка...
    Рейтинг →
     (голосов: 1, оценка 4/5, голосовать можно 1 раз )

    Другие торренты по теме:



      Комментарии (0):

      Информация

      Информация

        Посетители, находящиеся в группе Гости, не могут оставлять комментарии в данной новости.

        ↓ Меню



        ↓ Опрос

        А Вы добавили сайт в закладки?
        Да
        Не


        Top 10 за месяц (Фильмы)