.
Авторизация | Регистрация
Хочешь лучшие торренты? Добавь свой email!
Добавить
» » Последнее метро / Le dernier metro (1980) BDRip | P торрент скачать бесплатно




    Последнее метро / Le dernier metro (1980) BDRip | P торрент скачать бесплатно

    Опубликовал: Админ | Дата: 27-02-2015, 11:09 | Просмотров: 441



    Название: Последнее метро
    Оригинальное название: Le dernier metro
    Год выпуска: 1980
    Жанр: Драма, мелодрама, военный
    Выпущено: Франция, Les Films du Carrosse, S?dif Productions, Soci?t? Fran?aise de Production (SFP), TF1 Films Production
    Режиссер: Франсуа Трюффо
    В ролях: Жерар Депардье, Катрин Денев, Жан Пуарэ, Хайнц Беннент, Андреа Ферреоль, Полетт Дюбо, Жан-Луи Ришар, Морис Риш, Сабин Одпен, Кристиан Бальтосс

    О фильме: Вторая Мировая. Оккупированный Париж. Общество расколото на молчаливое большинство, невидимых партизан, открытых коллаборационистов и жертв режима, скрывающихся от нацистской расправы. К последним относится еврей Жан-Лу Коттен, театральный режиссер и муж ведущей актрисы — Марион Штайнер. С риском для себя и всего коллектива Марион решает спрятать мужа в подвале театра, откуда Жан-Лу продолжает вдохновенно, через жену, готовить новую премьеру. На Марион, тем временем, ложится одна забота за другой: тайно носить еду в подвал (что в условиях тотального доносительства превращается в целое искусство); распространять слухи, что её муж сбежал из города; аккуратно сдерживать натиск влиятельного немецкого ухажёра… Вдобавок Марион увлекается коллегой — актёром Бернаром…

    Качество: BDRip
    Видео: XviD, 1899 Kбит/с, 672x400
    Аудио: Русский (AC3, 2 ch, 192 Кбит/с), французский (AC3, 1 ch, 192 Кбит/с)
    Размер: 2.12 ГБ
    Продолжительность: 02:12:09
    Перевод: Профессиональный многоголосый (Кармен Видео)
    Субтитры: Русские

    Сравнение с исходником



    Награды
    Приз Давид Донателло в Италии лучшей иностранной актрисе (Катрин Денёв).

    Оскар, 1981 год
    Номинации (1):
    Лучший фильм на иностранном языке — Франция

    Золотой глобус, 1981 год
    Номинации (1):
    Лучший иностранный фильм — Франция

    Сезар, 1981 год
    Победитель (10):
    Лучший фильм
    Лучший актер (Жерар Депардье)
    Лучшая актриса (Катрин Денёв)
    Лучший режиссер (Франсуа Трюффо)
    Лучший адаптированный или оригинальный сценарий
    Лучшая работа оператора
    Лучший звук
    Лучший монтаж
    Лучший саундтрек
    Лучшие декорации

    Номинации (2):
    Лучший актер второго плана (Хайнц Беннент)
    Лучшая актриса второго плана (Андреа Ферреоль)
    Из отзывов...
    dima_elf

    Трюффо о театре

    Франсуа Трюффо, в общем-то, довольно спокойный режиссёр, он никогда (или, по крайней мере, крайне редко) скатывается к какой-то фриковатости, провокации. Так же Последнее метро могло быть довольно ребристым фильмом (как, например, Гибель Богов Висконти или Конформист Бертолуччи). Но, по сути, мы имеем фильм о любви, как уже было сказано, о любви к жизни, театру, между мужчиной и женщиной (хотя есть эпизод, где и между двумя женщинами).
    Главные роли Катрин Денёв и Жерар Депардье сыграли прекрасно. Образ Катрин превосходен, не лишен внутреннего конфликта и полон достоинства. Депардье было немного проще. Справился он на пристойном уровне. Но, при этом, и второстепенные персонажи очень радуют глаз, все работники театра очень характерны.
    Фильм действительно хорош, что ещё раз подтверждает его присутствие в списках тысяч лучших кинолент по трём мне известным версиям: Halliwell, Guardian, NEW YORK TIMES. Кроме того, это одна из лучших картин о театре.

    10 из 10

    Кинопоиск
    MediaInfo
    Общее
    Полное имя : E:VideoPoslednee.metro.1980.XviD.BDRipPoslednee.metro.1980.Original.fre.ac3
    Формат : AC-3
    Формат/Информация : Audio Coding 3
    Размер файла : 181 Мбайт
    Продолжительность : 2 ч. 12 м.
    Режим общего битрейта : Постоянный
    Общий поток : 192 Кбит/сек

    Аудио
    Формат : AC-3
    Формат/Информация : Audio Coding 3
    Расширение режима : CM (complete main)
    Параметр Endianness формата : Big
    Продолжительность : 2 ч. 12 м.
    Вид битрейта : Постоянный
    Битрейт : 192 Кбит/сек
    Каналы : 1 канал
    Расположение каналов : Front: C
    Частота : 48,0 КГц
    Битовая глубина : 16 бит
    Метод сжатия : С потерями
    Размер потока : 181 Мбайт (100%)

    Общее
    Полное имя : E:VideoPoslednee.metro.1980.XviD.BDRipPoslednee.metro.1980.rus.srt
    Формат : SubRip
    Размер файла : 211 Кбайт

    Текст
    Формат : SubRip
    Метод сжатия : Без потерь

    Общее
    Полное имя : E:VideoPoslednee.metro.1980.XviD.BDRipPoslednee.metro.1980.XviD.BDRip.avi
    Формат : AVI
    Формат/Информация : Audio Video Interleave
    Размер файла : 1,94 Гбайт
    Продолжительность : 2 ч. 12 м.
    Общий поток : 2101 Кбит/сек
    Программа кодирования : VirtualDubMod 1.5.10.2 (build 2540/release)
    Библиотека кодирования : VirtualDubMod build 2540/release

    Видео
    Идентификатор : 0
    Формат : MPEG-4 Visual
    Профиль формата : Advanced Simple@L5
    Параметр BVOP формата : 1
    Параметр QPel формата : Нет
    Параметр GMC формата : Без точки перехода
    Параметр матрицы формата : Default (H.263)
    Режим смешивания : Сжатый битовый поток
    Идентификатор кодека : XVID
    Идентификатор кодека/Подсказка : XviD
    Продолжительность : 2 ч. 12 м.
    Битрейт : 1899 Кбит/сек
    Ширина : 672 пикселя
    Высота : 400 пикселей
    Соотношение сторон : 1,680
    Частота кадров : 23,976 кадра/сек
    Цветовое пространство : YUV
    Субдискретизация насыщенности : 4:2:0
    Битовая глубина : 8 бит
    Тип развёртки : Прогрессивная
    Метод сжатия : С потерями
    Бит/(Пиксели*Кадры) : 0.295
    Размер потока : 1,75 Гбайт (90%)
    Библиотека кодирования : XviD 1.2.1 (UTC 2008-12-04)

    Аудио
    Идентификатор : 1
    Формат : AC-3
    Формат/Информация : Audio Coding 3
    Расширение режима : CM (complete main)
    Параметр Endianness формата : Big
    Идентификатор кодека : 2000
    Продолжительность : 2 ч. 12 м.
    Вид битрейта : Постоянный
    Битрейт : 192 Кбит/сек
    Каналы : 2 канала
    Расположение каналов : Front: L R
    Частота : 48,0 КГц
    Битовая глубина : 16 бит
    Метод сжатия : С потерями
    Размер потока : 181 Мбайт (9%)
    Выравнивание : Разделение по промежуткам
    Продолжительность промежутка : 42 мс. (1,00 видеокадр)
    Время предзагрузки промежутка : 500 мс.
    Скриншоты



    Залил: msltel
    Размер: 2.12 GB (2272459805 Bytes)
    загрузка...
    Рейтинг →
     (голосов: 1, оценка 4/5, голосовать можно 1 раз )

    Другие торренты по теме:

  • Последнее метро / Le dernier metro (1980) BDRip 720p | P
  • Благословенное предательство и Последнее метро / Benedetta Trasgressione Ultimo Metro (1999) DVDRip | P2


    • Комментарии (0):

      Информация

      Информация

        Посетители, находящиеся в группе Гости, не могут оставлять комментарии в данной новости.

        ↓ Меню



        ↓ Опрос

        А Вы добавили сайт в закладки?
        Да
        Не


        Top 10 за месяц (Фильмы)