.
Авторизация | Регистрация
» » Взятие Беверли Хиллз / Захват Беверли Хиллз / The Taking of Beverly Hills (1991) BDRip от MediaClub | P2, A торрент скачать бесплатно




    Взятие Беверли Хиллз / Захват Беверли Хиллз / The Taking of Beverly Hills (1991) BDRip от MediaClub | P2, A торрент скачать бесплатно

    Опубликовал: Админ | Дата: 27-02-2015, 11:09 | Просмотров: 338



    Информация о фильме
    Название: Взятие Беверли Хиллз (Захват Беверли Хиллз)
    Оригинальное название: The Taking of Beverly Hills
    Год выпуска: 1991
    Жанр: Боевик
    Режиссер: Сидни Дж. Фьюри
    В ролях: Кен Уол, Мэтт Фрюэр, Харли Джейн Козак, Роберт Дави, Ли Винг, Брэнском Ричмонд, Лаймен Уорд, Майкл Боуэн, Уильям Принц, Майкл Кехо, Марк Хэйнинг, Джейсон Бликер, Тони Гэниос, Кен Своффорд, Рэймонд Сингер, Ричард Брестофф, Артур Цыбульски, Майкл Олдредж, Джефф Бенсон, Боб Голик, Питер Кох, Тесс Фолтин, Стефан Карлссон, Джек Ритшель


    Описание: Хорошо организованная банда злоумышленников под прикрытием эвакуации в связи c ложной аварией, вызванной утечкой ядовитого газа, пытается ограбить опустевшие дома и магазины элитного района Беверли-Хилз. Но на пути у них встает американский футболист, который случайно уснул в ванной (и, соответственно, пропустил эвакуацию) у своей подружки…





    Страна: США
    Студия: Nelson Entertainment
    Продолжительность: 01:34:50
    Перевод: Профессиональный двухголосый, авторский одноголосый

    Файл
    Качество: BDRip
    Видео: XviD, 1870 Кбит/с, 720x304
    Аудио #1: Русский (AC3, 2 ch, 160 Кбит/с) / Профессиональный двухголосый (НТВ )
    Аудио #2: Русский (AC3, 2 ch, 160 Кбит/с) / Авторский одноголосый (Ю.Живов)


    Скриншоты



    О релизе
    За исходник большое СПАСИБО neni
    За перевод Юрия Живова, огромное СПАСИБО AlexAndr92
    За работу со звуком СПАСИБО Викс
    Огромная благодарность Media-Art-Club за созданный постер к раздаче!

    MI
    Общее
    Полное имя : D:Mои раздачиVzyatie.Beverli.Hills.1991.BDRip-MediaClub.avi
    Формат : AVI
    Формат/Информация : Audio Video Interleave
    Размер файла : 1,46 Гбайт
    Продолжительность : 1 ч. 34 м.
    Общий поток : 2203 Кбит/сек
    Название фильма : -=MediaClub-kaspr=-
    Программа кодирования : VirtualDubMod 1.5.10.2 (build 2542/release)
    Библиотека кодирования : VirtualDubMod build 2542/release

    Видео
    Идентификатор : 0
    Формат : MPEG-4 Visual
    Профиль формата : Advanced Simple@L5
    Параметр BVOP формата : 2
    Параметр QPel формата : Нет
    Параметр GMC формата : Без точки перехода
    Параметр матрицы формата : Выборочная
    Идентификатор кодека : XVID
    Идентификатор кодека/Подсказка : XviD
    Продолжительность : 1 ч. 34 м.
    Битрейт : 1870 Кбит/сек
    Ширина : 720 пикселей
    Высота : 304 пикселя
    Соотношение сторон : 2,35:1
    Частота кадров : 23,976 кадра/сек
    Цветовое пространство : YUV
    Субдискретизация насыщенности : 4:2:0
    Битовая глубина : 8 бит
    Тип развёртки : Прогрессивная
    Метод сжатия : С потерями
    Бит/(Пиксели*Кадры) : 0.356
    Размер потока : 1,24 Гбайт (85%)
    Библиотека кодирования : XviD 73

    Аудио #1
    Идентификатор : 1
    Формат : AC-3
    Формат/Информация : Audio Coding 3
    Расширение режима : CM (complete main)
    Параметр Endianness формата : Big
    Идентификатор кодека : 2000
    Продолжительность : 1 ч. 34 м.
    Вид битрейта : Постоянный
    Битрейт : 160 Кбит/сек
    Каналы : 2 канала
    Расположение каналов : Front: L R
    Частота : 48,0 КГц
    Битовая глубина : 16 бит
    Метод сжатия : С потерями
    Размер потока : 109 Мбайт (7%)
    Выравнивание : Разделение по промежуткам
    Продолжительность промежутка : 42 мс. (1,00 видеокадр)
    Время предзагрузки промежутка : 500 мс.

    Аудио #2
    Идентификатор : 2
    Формат : AC-3
    Формат/Информация : Audio Coding 3
    Расширение режима : CM (complete main)
    Параметр Endianness формата : Big
    Идентификатор кодека : 2000
    Продолжительность : 1 ч. 34 м.
    Вид битрейта : Постоянный
    Битрейт : 160 Кбит/сек
    Каналы : 2 канала
    Расположение каналов : Front: L R
    Частота : 48,0 КГц
    Битовая глубина : 16 бит
    Метод сжатия : С потерями
    Размер потока : 109 Мбайт (7%)
    Выравнивание : Разделение по промежуткам
    Продолжительность промежутка : 42 мс. (1,00 видеокадр)
    Время предзагрузки промежутка : 500 мс.

    Релиз:
    Залил: kaspr
    Размер: 1.46 GB (1567426560 Bytes)
    загрузка...
    Рейтинг →
     (голосов: 1, оценка 4/5, голосовать можно 1 раз )

    Другие торренты по теме:

  • Взятие Беверли Хиллз / Захват Беверли Хиллз / The Taking of Beverly Hills (1991) Blu-ray Remux 1080p от MediaClub | P2, A торрент скачать бесплатно
  • Взятие Беверли Хиллз / Захват Беверли Хиллз / The Taking of Beverly Hills (1991) BDRip-AVC от MediaClub | P2, A торрент скачать бесплатно
  • Взятие Беверли Хиллз / Захват Беверли Хиллз / The Taking of Beverly Hills (1991) BDRip 720p от MediaClub | P2, A торрент скачать бесплатно
  • Взятие Беверли Хиллз / Захват Беверли Хиллз / The Taking of Beverly Hills (1991) HDTV 1080i от Generalfilm торрент скачать бесплатно


    • Комментарии (0):

      Информация

      Информация

        Посетители, находящиеся в группе Гости, не могут оставлять комментарии в данной новости.

        ↓ Меню



        ↓ Опрос

        А Вы добавили сайт в закладки?
        Да
        Не


        Top 10 за неделю (Фильмы)