.
Авторизация | Регистрация
Хочешь лучшие торренты? Добавь свой email!
Добавить
» » Железный телохранитель / Da dao Wang Wu (1973) DVDRip от ikusha76 торрент скачать бесплатно




    Железный телохранитель / Da dao Wang Wu (1973) DVDRip от ikusha76 торрент скачать бесплатно

    Опубликовал: Админ | Дата: 27-02-2015, 11:09 | Просмотров: 348



    Информация о фильме
    Название: Железный телохранитель
    Оригинальное название: Da dao Wang Wu
    Год выхода: 1973
    Жанр: боевые искусства
    Режиссеры: Чанг Че, Хсю Ли Пао
    В ролях: Чен Куан Тай, Хуа Юех, Лили Лай, Бетти Пей Ти, Дэнни Ли, Ти Лу, Тао Чианг, Нэн Чианг, Лин Танг, Чинг По Чанг

    О фильме:
    Тань Сы-Тун (1865-1898) - китайский мыслитель, философ, поэт, лидер радикалов реформаторского движения Китая, добровольно принявший мученическую смерть. Фильм Железный телохранитель повествует о группе отважных героев во главе со знаменитым фехтовальщиком Ван У, которые предпринимают попытку спасти Тань Сы-Туна в день его казни.



    Страна: Китай, Гонконг
    Студия: Shaw Brothers
    Продолжительность: 01:34:08
    Перевод: Любительский одноголосый закадровый (Jet)

    Файл
    Кодек: XviD
    Качество: DVDRip
    Видео: 688x288, 23.976 fps, ~2026 kbps avg, 0.43 bit/pixel
    Звук: 48 kHz, AC3 Dolby Digital, 2/0 (L,R) ch, ~192 kbps
    Субтитры: нет

    MI
    Формат : AVI
    Формат/Информация : Audio Video Interleave
    Размер файла : 1,47 Гбайт
    Продолжительность : 1 ч. 34 м.
    Общий поток : 2228 Кбит/сек
    Программа кодирования : VirtualDubMod 1.5.10.3 | www.virtualdub-fr.org || (build 2550/release)
    Библиотека кодирования : VirtualDubMod build 2550/release

    Видео
    Идентификатор : 0
    Формат : MPEG-4 Visual
    Профиль формата : Advanced Simple@L5
    Параметр BVOP формата : 2
    Параметр QPel формата : Нет
    Параметр GMC формата : Без точки перехода
    Параметр матрицы формата : Default (MPEG)
    Идентификатор кодека : XVID
    Идентификатор кодека/Подсказка : XviD
    Продолжительность : 1 ч. 34 м.
    Битрейт : 2027 Кбит/сек
    Ширина : 688 пикселей
    Высота : 288 пикселей
    Соотношение сторон : 2,40:1
    Частота кадров : 23,976 кадра/сек
    Цветовое пространство : YUV
    Субдискретизация насыщенности : 4:2:0
    Битовая глубина : 8 бит
    Тип развёртки : Прогрессивная
    Метод сжатия : С потерями
    Бит/(Пиксели*Кадры) : 0.427
    Размер потока : 1,33 Гбайт (91%)
    Библиотека кодирования : XviD 1.2.1 (UTC 2008-12-04)

    Аудио
    Идентификатор : 1
    Формат : AC-3
    Формат/Информация : Audio Coding 3
    Расширение режима : CM (complete main)
    Параметр Endianness формата : Big
    Идентификатор кодека : 2000
    Продолжительность : 1 ч. 34 м.
    Вид битрейта : Постоянный
    Битрейт : 192 Кбит/сек
    Каналы : 2 канала
    Расположение каналов : Front: L R
    Частота : 48,0 КГц
    Битовая глубина : 16 бит
    Метод сжатия : С потерями
    Размер потока : 129 Мбайт (9%)
    Выравнивание : Разделение по промежуткам
    Продолжительность промежутка : 42 мс. (1,00 видеокадр)
    Время предзагрузки промежутка : 500 мс.

    Скриншоты

    Залил: ikusha76
    Размер: 1.47 GB (1573296128 Bytes)
    загрузка...
    Рейтинг →
     (голосов: 1, оценка 4/5, голосовать можно 1 раз )

    Другие торренты по теме:

  • Железный человек 2 / Iron Man 2 (2010) BDRip-AVC от 0ptimus | D, A
  • Железный флаг / Tie qi men (1980) DVDRip от ikusha76
  • Железный рыцарь / Ironclad (2011) BDRip-AVC
  • Железный человек 3 / Iron Man 3 (2013) HDTVRip 1080p | Трейлер
  • Железный поток - Дискография (1988-1995) MP3
  • Железный кулак / Человек с железными кулаками / The Man with the Iron Fists (2012) BDRip 1080p от Youtracker | Лицензия |Театральная версия
  • Маршал - Железный попугай (1989) MP3
  • Железный Человек: Восстание Техновора / Iron Man: Rise of Technovore (2013) BDRip 720p | L1


    • Комментарии (0):

      Информация

      Информация

        Посетители, находящиеся в группе Гости, не могут оставлять комментарии в данной новости.

        ↓ Меню



        ↓ Опрос

        А Вы добавили сайт в закладки?
        Да
        Не


        Top 10 за месяц (Фильмы)