.
Авторизация | Регистрация
Хочешь лучшие торренты? Добавь свой email!
Добавить
» » Кровью и потом: Анаболики / Pain Gain (2013) BDRip 1080p | Чистый звук торрент скачать бесплатно




    Кровью и потом: Анаболики / Pain Gain (2013) BDRip 1080p | Чистый звук торрент скачать бесплатно

    Опубликовал: Админ | Дата: 27-02-2015, 11:09 | Просмотров: 279



    Информация о фильме
    Название: Кровью и потом: Анаболики
    Оригинальное название: Pain Gain
    Год выпуска: 2013
    Жанр: Боевик, триллер, комедия
    Выпущено: США, De Line Pictures, Paramount Pictures
    Режиссер: Майкл Бэй
    В ролях: Марк Уолберг, Дуэйн Джонсон, Энтони Маки, Тони Шэлоуб, Эд Харрис, Кен Жонг, Иоланта Кабау ван Касберген, Виорика Пинеда, Роб Кордри, Ребел Уилсон

    О фильме: Однажды тренеру по фитнесу надоело ходить в трениках. Он решил круто изменить свою судьбу и разбогатеть. Нашел двух других незадачливых качков и предложил им план похищения своего клиента-миллионера. Но если в организме мышц больше, чем мозгов, то даже самый лучший план, подсмотренный в экшен-боевике, может не сработать…



    Файл
    Качество: BDRip (1080p)
    Видео: MPEG-4 AVC, 14.8 Мбит/с, 1920x800
    Аудио: Русский (AC3, 6 ch, 448 Кбит/с), английский (AC3, 6 ch, 640 Кбит/с)
    Размер: 14.4 ГБ
    Продолжительность: 02:09:37
    Перевод: Дубляж - Чистый звук - не кинотеатральный
    Субтитры: Русские, английские

    MI
    General
    Unique ID : 171091796659289674577547312041908463323 (0x80B714D96AA54978BA1194F061E366DB)
    Complete name : E:киноPain.and.Gain.2013.1080p.BluRay.h264-HDTracker.mkv
    Format : Matroska
    Format version : Version 4 / Version 2
    File size : 14.4 GiB
    Duration : 2h 9mn
    Overall bit rate : 15.9 Mbps
    Movie name : Release for HDtracker
    Encoded date : UTC 2013-08-24 08:19:32
    Writing application : mkvmerge v6.0.0 (;Coming Up For Air;) built on Jan 20 2013 09:52:00
    Writing library : libebml v1.3.0 libmatroska v1.4.0

    Video
    ID : 1
    Format : AVC
    Format/Info : Advanced Video Codec
    Format profile : High@L4.1
    Format settings, CABAC : Yes
    Format settings, ReFrames : 5 frames
    Codec ID : V_MPEG4/ISO/AVC
    Duration : 2h 9mn
    Bit rate : 14.8 Mbps
    Width : 1 920 pixels
    Height : 800 pixels
    Display aspect ratio : 2.40:1
    Frame rate : 23.976 fps
    Color space : YUV
    Chroma subsampling : 4:2:0
    Bit depth : 8 bits
    Scan type : Progressive
    Bits/(Pixel*Frame) : 0.402
    Stream size : 13.1 GiB (91%)
    Title : rip by WiKi
    Writing library : x264 core 130 r2273 b3065e6
    Encoding settings : cabac=1 / ref=5 / deblock=1:-3:-3 / analyse=0x3:0x133 / me=umh / subme=11 / psy=1 / psy_rd=1.05:0.10 / mixed_ref=1 / me_range=64 / chroma_me=1 / trellis=2 / 8x8dct=1 / cqm=0 / deadzone=21,11 / fast_pskip=0 / chroma_qp_offset=-3 / threads=12 / lookahead_threads=2 / sliced_threads=0 / nr=0 / decimate=1 / interlaced=0 / bluray_compat=0 / constrained_intra=0 / bframes=8 / b_pyramid=2 / b_adapt=2 / b_bias=0 / direct=3 / weightb=1 / open_gop=0 / weightp=2 / keyint=250 / keyint_min=23 / scenecut=40 / intra_refresh=0 / rc_lookahead=60 / rc=2pass / mbtree=1 / bitrate=14820 / ratetol=1.0 / qcomp=0.60 / qpmin=0 / qpmax=69 / qpstep=4 / cplxblur=20.0 / qblur=0.5 / vbv_maxrate=40000 / vbv_bufsize=30000 / nal_hrd=none / ip_ratio=1.40 / aq=1:0.90
    Language : English
    Default : Yes
    Forced : No

    Audio #1
    ID : 2
    Format : AC-3
    Format/Info : Audio Coding 3
    Mode extension : CM (complete main)
    Format settings, Endianness : Big
    Codec ID : A_AC3
    Duration : 2h 9mn
    Bit rate mode : Constant
    Bit rate : 448 Kbps
    Channel(s) : 6 channels
    Channel positions : Front: L C R, Side: L R, LFE
    Sampling rate : 48.0 KHz
    Bit depth : 16 bits
    Compression mode : Lossy
    Stream size : 415 MiB (3%)
    Title : PiratDub
    Language : Russian
    Default : Yes
    Forced : No

    Audio #2
    ID : 3
    Format : AC-3
    Format/Info : Audio Coding 3
    Mode extension : CM (complete main)
    Format settings, Endianness : Big
    Codec ID : A_AC3
    Duration : 2h 9mn
    Bit rate mode : Constant
    Bit rate : 640 Kbps
    Channel(s) : 6 channels
    Channel positions : Front: L C R, Side: L R, LFE
    Sampling rate : 48.0 KHz
    Bit depth : 16 bits
    Compression mode : Lossy
    Stream size : 593 MiB (4%)
    Title : Original
    Language : English
    Default : No
    Forced : No

    Text #1
    ID : 4
    Format : UTF-8
    Codec ID : S_TEXT/UTF8
    Codec ID/Info : UTF-8 Plain Text
    Language : Russian
    Default : No
    Forced : No

    Text #2
    ID : 5
    Format : UTF-8
    Codec ID : S_TEXT/UTF8
    Codec ID/Info : UTF-8 Plain Text
    Language : English
    Default : Yes
    Forced : No

    Menu
    00:00:00.000 : en:00:00:00.000
    00:02:34.654 : en:00:02:34.654
    00:09:33.990 : en:00:09:33.990
    00:16:08.676 : en:00:16:08.676
    00:22:05.657 : en:00:22:05.657
    00:25:50.840 : en:00:25:50.840
    00:32:45.505 : en:00:32:45.505
    00:38:52.788 : en:00:38:52.788
    00:46:19.651 : en:00:46:19.651
    00:51:40.972 : en:00:51:40.972
    00:58:11.738 : en:00:58:11.738
    01:04:03.548 : en:01:04:03.548
    01:10:32.311 : en:01:10:32.311
    01:16:17.281 : en:01:16:17.281
    01:21:20.542 : en:01:21:20.542
    01:29:00.084 : en:01:29:00.084
    01:37:06.028 : en:01:37:06.028
    01:42:17.714 : en:01:42:17.714
    01:49:10.460 : en:01:49:10.460
    01:56:34.487 : en:01:56:34.487
    02:01:42.295 : en:02:01:42.295

    Скриншоты


    релиз от:
    Размер: 14.40 GB (15459156473 Bytes)
    загрузка...
    Рейтинг →
     (голосов: 1, оценка 3/5, голосовать можно 1 раз )

    Другие торренты по теме:

  • Кровью и потом: Анаболики / Pain Gain (2013) HD | Трейлер
  • OST - Кровью и потом: Анаболики / Pain Gain (2013) MP3
  • Кровью и потом: Анаболики / Pain Gain (2013) BDRip 720p | Звук с TS
  • Кровью и потом: Анаболики / Pain amp Gain (2013) BDRip-AVC от HELLYWOOD | чистый звук
  • Кровью и потом: Анаболики / Pain Gain (2013) BDRip 720p от DHT-Movies | Чистый звук
  • Кровью и потом: Анаболики / Pain Gain (2013) BDRip-AVC от HELLYWOOD | чистый звук
  • Кровью и потом: Анаболики / Pain Gain (2013) BDRip 720p | Чистый звук
  • Кровью и потом: Анаболики / Pain Gain (2013) BDRip-AVC от ExKinoRay | Чистый звук


    • Комментарии (0):

      Информация

      Информация

        Посетители, находящиеся в группе Гости, не могут оставлять комментарии в данной новости.

        ↓ Меню



        ↓ Опрос

        А Вы добавили сайт в закладки?
        Да
        Не


        Top 10 за месяц (Фильмы)