.
Авторизация | Регистрация
Хочешь лучшие торренты? Добавь свой email!
Добавить
» » Ниагара / Niagara (1953) BDRip-AVC 1080p торрент скачать бесплатно




    Ниагара / Niagara (1953) BDRip-AVC 1080p торрент скачать бесплатно

    Опубликовал: Админ | Дата: 27-02-2015, 11:09 | Просмотров: 308



    Информация о фильме
    Название: Ниагара
    Оригинальное название: Niagara
    Год выхода: 1953
    Жанр: триллер, драма, мелодрама
    Режиссер: Генри Хэтэуэй / Henry Hathaway
    В ролях: Мэрилин Монро, Джозеф Коттен, Джин Питерс, Макс Шоуолтер, Денис О’Ди, Ричард Аллан, Дон Уилсон, Лёрин Таттл, Расселл Коллинз, Уилл Райт, Генри Бекман, Гарри Кэри мл., Билл Кунтц, Роберт Эллис, Ховард Энджел, Нил Фицджералд, Глория Гордон, Джордж Айвз, Арч Джонсон, Лестер Мэтьюз, Шон МакКлори, Норман МакКэй, Одри Монтью, Патрик О’Мур, Марджори Рэмбо, Том Рейнольдс, Уиллард Сэйдж, Минерва Урекал, Нина Варела, Джин Уэссон, Карлтон Янг

    О фильме:
    Молодожены Полли и Рэй Катлеры приезжают в коттедж возле водопада и знакомятся с еще одной супружеской парой, Джорджем и Роуз Лумисами.
    Роуз с самого начала всем доверительно сообщает, что ее муж значительно старше ее, что его мучает депрессия и его только что выпустили из психиатрической лечебницы.
    Позже Полли видит, как Роуз целуется с молодым человеком, и узнает, что парочка собирается убить Джорджа…



    Страна: США
    Продолжительность: 01:28:52
    Перевод: 1. Многоголосый Двадцатый Век Фокс СНГ
    2. Многоголосый SomeWax
    3. Многоголосый 1 канала

    Файл
    Кодек: MPEG4-AVC h.264
    Качество: BDRip-AVC 1080p
    Видео: 1 488 x 1 080, 9 055 Kbps, 23.976 fps
    Звук:
    Аудио #1: Русская MVO Двадцатый Век Фокс СНГ - 48 kHz, MPEG Layer 3, 2 ch, ~128 kbps avg 2/0 (L,R) ch
    Аудио #2: Русская MVO по заказу 1 канала - 48 kHz, MPEG Layer 3, 2 ch, ~128 kbps avg
    Аудио #3: Русская MVO SomeWax - 48 kHz, MPEG Layer 3, 2 ch, ~128 kbps avg
    Аудио #4: Русская MVO - 48 kHz, MPEG Layer 3, 2 ch, ~128 kbps avg
    Аудио #5: Оригинальная ENG - AC3 Dolby Digital, 48000Hz 448 kb/s, 6 chnls
    Субтитры: Русский, Английский, Главы

    Скриншоты

    Скрытый текст
    Video
    ID : 1
    Format : AVC
    Format/Info : Advanced Video Codec
    Format profile : High@L4.0
    Format settings, CABAC : Yes
    Format settings, ReFrames : 4 frames
    Codec ID : V_MPEG4/ISO/AVC
    Duration : 1h 28mn
    Bit rate : 9 055 Kbps
    Width : 1 488 pixels
    Height : 1 080 pixels
    Display aspect ratio : 1.378
    Frame rate mode : Constant
    Frame rate : 23.976 fps
    Color space : YUV
    Chroma subsampling : 4:2:0
    Bit depth : 8 bits
    Scan type : Progressive
    Bits/(Pixel*Frame) : 0.235
    Stream size : 5.50 GiB (90%)
    Writing library : x264 core 133 r2334 a3ac64b
    Encoding settings : cabac=1 / ref=4 / deblock=1:0:0 / analyse=0x3:0x133 / me=umh / subme=7 / psy=1 / psy_rd=1.00:0.00 / mixed_ref=1 / me_range=16 / chroma_me=1 / trellis=1 / 8x8dct=1 / cqm=0 / deadzone=21,11 / fast_pskip=0 / chroma_qp_offset=-2 / threads=18 / lookahead_threads=3 / sliced_threads=0 / nr=0 / decimate=1 / interlaced=0 / bluray_compat=0 / constrained_intra=0 / bframes=3 / b_pyramid=2 / b_adapt=2 / b_bias=0 / direct=3 / weightb=1 / open_gop=0 / weightp=2 / keyint=250 / keyint_min=23 / scenecut=40 / intra_refresh=0 / rc_lookahead=50 / rc=2pass / mbtree=1 / bitrate=9055 / ratetol=1.0 / qcomp=0.60 / qpmin=0 / qpmax=69 / qpstep=4 / cplxblur=20.0 / qblur=0.5 / ip_ratio=1.40 / aq=1:1.00
    Language : Russian
    Default : Yes
    Forced : No

    Audio #1
    ID : 2
    Format : MPEG Audio
    Format version : Version 1
    Format profile : Layer 3
    Mode : Joint stereo
    Mode extension : MS Stereo
    Codec ID : A_MPEG/L3
    Codec ID/Hint : MP3
    Duration : 1h 28mn
    Bit rate mode : Constant
    Bit rate : 128 Kbps
    Channel(s) : 2 channels
    Sampling rate : 48.0 KHz
    Compression mode : Lossy
    Delay relative to video : 800ms
    Stream size : 81.3 MiB (1%)
    Title : MVO по заказу 1 канала
    Writing library : LAME3.98r
    Encoding settings : -m j -V 4 -q 2 -lowpass 17 -b 128
    Language : Russian
    Default : Yes
    Forced : No

    Audio #2
    ID : 3
    Format : MPEG Audio
    Format version : Version 1
    Format profile : Layer 3
    Mode : Joint stereo
    Mode extension : MS Stereo
    Codec ID : A_MPEG/L3
    Codec ID/Hint : MP3
    Duration : 1h 28mn
    Bit rate mode : Constant
    Bit rate : 128 Kbps
    Channel(s) : 2 channels
    Sampling rate : 48.0 KHz
    Compression mode : Lossy
    Delay relative to video : 800ms
    Stream size : 81.3 MiB (1%)
    Title : MVO SomeWax
    Writing library : LAME3.98r
    Encoding settings : -m j -V 4 -q 2 -lowpass 17 -b 128
    Language : Russian
    Default : No
    Forced : No

    Audio #3
    ID : 4
    Format : MPEG Audio
    Format version : Version 1
    Format profile : Layer 3
    Mode : Joint stereo
    Mode extension : MS Stereo
    Codec ID : A_MPEG/L3
    Codec ID/Hint : MP3
    Duration : 1h 28mn
    Bit rate mode : Constant
    Bit rate : 128 Kbps
    Channel(s) : 2 channels
    Sampling rate : 48.0 KHz
    Compression mode : Lossy
    Delay relative to video : 800ms
    Stream size : 81.3 MiB (1%)
    Title : MVO Двадцатый Век Фокс СНГ
    Writing library : LAME3.98r
    Encoding settings : -m j -V 4 -q 2 -lowpass 17 -b 128
    Language : Russian
    Default : No
    Forced : No

    Audio #4
    ID : 5
    Format : AC-3
    Format/Info : Audio Coding 3
    Mode extension : CM (complete main)
    Format settings, Endianness : Big
    Codec ID : A_AC3
    Duration : 1h 28mn
    Bit rate mode : Constant
    Bit rate : 448 Kbps
    Channel(s) : 6 channels
    Channel positions : Front: L C R, Side: L R, LFE
    Sampling rate : 48.0 KHz
    Bit depth : 16 bits
    Compression mode : Lossy
    Stream size : 285 MiB (5%)
    Title : Original
    Language : English
    Default : No
    Forced : No

    Text #1
    ID : 6
    Format : UTF-8
    Codec ID : S_TEXT/UTF8
    Codec ID/Info : UTF-8 Plain Text
    Language : Russian
    Default : Yes
    Forced : No

    Text #2
    ID : 7
    Format : UTF-8
    Codec ID : S_TEXT/UTF8
    Codec ID/Info : UTF-8 Plain Text
    Language : English
    Default : No
    Forced : No

    Menu
    00:00:00.000 : en:00:00:00.000
    00:01:21.290 : en:00:01:21.290
    00:04:49.122 : en:00:04:49.122
    00:07:48.927 : en:00:07:48.927
    00:10:30.839 : en:00:10:30.839
    00:13:25.680 : en:00:13:25.680
    00:16:26.903 : en:00:16:26.903
    00:20:47.621 : en:00:20:47.621
    00:26:39.848 : en:00:26:39.848
    00:28:22.534 : en:00:28:22.534
    00:31:22.172 : en:00:31:22.172
    00:34:28.275 : en:00:34:28.275
    00:40:42.732 : en:00:40:42.732
    00:45:19.800 : en:00:45:19.800
    00:51:49.315 : en:00:51:49.315
    00:56:40.606 : en:00:56:40.606
    00:58:36.722 : en:00:58:36.722
    01:01:12.294 : en:01:01:12.294
    01:05:15.078 : en:01:05:15.078
    01:10:43.865 : en:01:10:43.865
    01:15:22.685 : en:01:15:22.685
    01:20:17.604 : en:01:20:17.604
    01:24:58.760 : en:01:24:58.760
    01:27:51.892 : en:01:27:51.892


    Залил: Shanti9
    Размер: 6.14 GB (6591632962 Bytes)
    загрузка...
    Рейтинг →
     (голосов: 1, оценка 4/5, голосовать можно 1 раз )

    Другие торренты по теме:

  • Ниагара / Niagara (1953) BDRip-AVC от MediaClub скачать через торрент бесплатно
  • Ниагара / Niagara (1952) BDRip 1080p скачать через торрент бесплатно
  • Ниагара / Niagara (1953) HDRip от Leo.pard | P


    • Комментарии (0):

      Информация

      Информация

        Посетители, находящиеся в группе Гости, не могут оставлять комментарии в данной новости.

        ↓ Меню



        ↓ Опрос

        А Вы добавили сайт в закладки?
        Да
        Не


        Top 10 за месяц (Фильмы)