.
Авторизация | Регистрация
» » Колокол, книга и свеча / Bell Book and Candle (1958) BDRip 720p торрент скачать бесплатно




    Колокол, книга и свеча / Bell Book and Candle (1958) BDRip 720p торрент скачать бесплатно

    Опубликовал: Админ | Дата: 27-02-2015, 11:09 | Просмотров: 415



    Информация о фильме
    Название: Колокол, книга и свеча
    Оригинальное название: Bell Book and Candle
    Год выхода: 1958
    Жанр: комедия, мелодрама, мистика
    Режиссер: Ричард Квин / Richard Quine
    В ролях:
    Джеймс Стюарт / James Stewart... Shepherd ;Shep; Henderson
    Ким Новак / Kim Novak... Gillian ;Gil; Holroyd
    Джек Леммон / Jack Lemmon... Nicky Holroyd
    Эрни Ковач / Ernie Kovacs... Sidney Redlitch
    Гермиона Гингольд / Hermione Gingold... Bianca de Passe
    Эльза Ланчестер / Elsa Lanchester... Aunt Queenie Holroyd
    Дженис Рул / Janice Rule... Merle Kittridge
    Филипп Клэй / Philippe Clay... French Singer at the Zodiac Club
    Бек Нельсон / Bek Nelson... Tina - Shep;s Secretary
    Ховард МакНир / Howard McNear... Andy White - Shep;s Co-Publisher
    Братья Кандоли / The Brothers Candoli... Musicians at the Zodiac Club

    О фильме:
    Джилл Хоррой – современная ведьма, обворожительная, но одинокая. После знакомства с соседом, писателем Шепом Хендерсоном, Джилл решает приворожить его. Однако, Шеп собирается жениться на сопернице Джилл еще со времен учебы в колледже. Подействуют ли колдовские чары очаровательной ведьмы?..



    Страна: США
    Продолжительность: 01:42:26
    Перевод:
    Аудио #1:Многоголосый закадровый5-й канал СПб
    Аудио #2:Многоголосый закадровыйImage Art

    Файл
    Кодек: MPEG-4 AVC / H.264
    Качество: BDRip-AVC 720p
    Видео: 1280 х 692, 14201 Кбит/с
    Звук:
    Аудио #1: Русский (АС3, 2 ch, 192 Кбит/с) Многоголосый закадровый
    Аудио #2: Русский (АС3, 2 ch, 192 Кбит/с) Многоголосый закадровый
    Аудио #3: Английский (DTS, 1 ch, 768 Кбит/с) Оригинальный
    Язык субтитров: Английские
    Скриншоты

    Скрытый текст
    Video
    ID : 1
    Format : AVC
    Format/Info : Advanced Video Codec
    Format profile : High@L4.1
    Format settings, CABAC : Yes
    Format settings, ReFrames : 9 frames
    Codec ID : V_MPEG4/ISO/AVC
    Duration : 1h 42mn
    Bit rate : 14.2 Mbps
    Width : 1 280 pixels
    Height : 692 pixels
    Display aspect ratio : 1.85:1
    Frame rate mode : Constant
    Frame rate : 23.976 fps
    Color space : YUV
    Chroma subsampling : 4:2:0
    Bit depth : 8 bits
    Scan type : Progressive
    Bits/(Pixel*Frame) : 0.669
    Stream size : 9.95 GiB (91%)
    Title : Видеоряд
    Writing library : x264 core 119 r2106 07efeb4
    Encoding settings : cabac=1 / ref=9 / deblock=1:-3:-3 / analyse=0x3:0x133 / me=tesa / subme=10 / psy=1 / psy_rd=1.00:0.10 / mixed_ref=1 / me_range=32 / chroma_me=1 / trellis=2 / 8x8dct=1 / cqm=0 / deadzone=21,11 / fast_pskip=0 / chroma_qp_offset=-3 / threads=12 / sliced_threads=0 / nr=0 / decimate=1 / interlaced=0 / bluray_compat=0 / constrained_intra=0 / bframes=6 / b_pyramid=2 / b_adapt=2 / b_bias=0 / direct=3 / weightb=1 / open_gop=0 / weightp=2 / keyint=250 / keyint_min=25 / scenecut=40 / intra_refresh=0 / rc=2pass / mbtree=0 / bitrate=14200 / ratetol=1.0 / qcomp=0.60 / qpmin=0 / qpmax=69 / qpstep=4 / cplxblur=20.0 / qblur=0.5 / ip_ratio=1.40 / pb_ratio=1.30 / aq=1:1.00
    Language : English
    Default : Yes
    Forced : No

    Audio #1
    ID : 2
    Format : AC-3
    Format/Info : Audio Coding 3
    Mode extension : CM (complete main)
    Format settings, Endianness : Big
    Codec ID : A_AC3
    Duration : 1h 42mn
    Bit rate mode : Constant
    Bit rate : 192 Kbps
    Channel(s) : 2 channels
    Channel positions : Front: L R
    Sampling rate : 48.0 KHz
    Bit depth : 16 bits
    Compression mode : Lossy
    Stream size : 141 MiB (1%)
    Title : Закадровый
    Language : Russian
    Default : Yes
    Forced : No

    Audio #2
    ID : 3
    Format : AC-3
    Format/Info : Audio Coding 3
    Mode extension : CM (complete main)
    Format settings, Endianness : Big
    Codec ID : A_AC3
    Duration : 1h 42mn
    Bit rate mode : Constant
    Bit rate : 192 Kbps
    Channel(s) : 2 channels
    Channel positions : Front: L R
    Sampling rate : 48.0 KHz
    Bit depth : 16 bits
    Compression mode : Lossy
    Stream size : 141 MiB (1%)
    Title : Закадровый
    Language : Russian
    Default : No
    Forced : No

    Audio #3
    ID : 4
    Format : DTS
    Format/Info : Digital Theater Systems
    Mode : 16
    Format settings, Endianness : Big
    Codec ID : A_DTS
    Duration : 1h 42mn
    Bit rate mode : Constant
    Bit rate : 768 Kbps
    Channel(s) : 1 channel
    Channel positions : Front: C
    Sampling rate : 48.0 KHz
    Bit depth : 24 bits
    Compression mode : Lossy
    Stream size : 563 MiB (5%)
    Title : Оригинал
    Language : English
    Default : No
    Forced : No

    Text
    ID : 5
    Format : UTF-8
    Codec ID : S_TEXT/UTF8
    Codec ID/Info : UTF-8 Plain Text
    Language : English
    Default : No
    Forced : No

    Menu
    00:00:00.000 : :Chapter 01
    00:06:18.544 : :Chapter 02
    00:12:54.690 : :Chapter 03
    00:22:22.424 : :Chapter 04
    00:34:22.685 : :Chapter 05
    00:41:17.099 : :Chapter 06
    00:53:12.856 : :Chapter 07
    01:02:30.037 : :Chapter 08
    01:11:56.103 : :Chapter 09
    01:25:05.683 : :Chapter 10
    01:33:27.977 : :Chapter 11
    01:36:54.225 : :Chapter 12
    01:42:26.430 : :Chapter 13

    Залил: Shanti9
    Размер: 10.99 GB (11798977637 Bytes)
    загрузка...
    Рейтинг →
     (голосов: 1, оценка 3/5, голосовать можно 1 раз )

    Другие торренты по теме:

  • Колокол, книга и свеча / Bell Book and Candle (1958) HDRip-AVC от ExKinoRay торрент скачать бесплатно


    • Комментарии (0):

      Информация

      Информация

        Посетители, находящиеся в группе Гости, не могут оставлять комментарии в данной новости.

        ↓ Меню



        ↓ Опрос

        А Вы добавили сайт в закладки?
        Да
        Не


        Top 10 за неделю (Фильмы)