.
Авторизация | Регистрация
Хочешь лучшие торренты? Добавь свой email!
Добавить
» » Форс-мажоры / Suits (2013) WEB-DL 720p | NewStudio торрент скачать бесплатно




    Форс-мажоры / Suits (2013) WEB-DL 720p | NewStudio торрент скачать бесплатно

    Опубликовал: Админ | Дата: 27-02-2015, 11:09 | Просмотров: 291

    Год выпуска: 2013
    Страна: США | USA Network
    Жанр: Драма
    Продолжительность: 00:42:00 / серия
    Перевод: Профессиональный двухголосый закадровый-NewStudio
    Субтитры: НетРежиссёр: Кевин Брэй, Джон Скотт и дрВ ролях: Гэбриел Махт, Патрик Дж. Адамс, Рик Хоффман, Меган Маркл, Сара Рафферти, Джина Торрес, Ванесса Рэй, Том Липински, Макс Топплин, Ребекка Скул, Джулиан ДеЗотти, Бен Льюис и др.Описание: Убегая после неудачной попытки сбыта наркотиков, юрист-самоучка Майк Росс, выдающий себя за выпускника Гарварда, попадает на собеседование к одному из лучших адвокатов по сделкам Нью-Йорка Харви Спектру. Устав от скучных соискателей, мечтающих верой и правдой служить букве закона, Харви рискует и нанимает Майка: у парня врожденный талант и фотографическая память. Так рождается один из самых неоднозначных, но, в то же время, и самых блестящих тандемов законников на Манхэттене.Сэмпл: http://multi-up.com/885609
    Качество: WEB-DL 720p
    Формат: MKV
    Видео кодек: AVC
    Аудио кодек: AC3
    Видео: AVC, 1280x720 (16/9), 23.976 fps, 4050 Kbps (0.183 bit/pixel)
    Аудио: AC-3, 48.0 KHz, 6 ch, 384 Kbps(Russian)
    Аудио 2: AC-3, 48.0 KHz, 6 ch, 384 Kbps
    Озвучка: Константин Погодаев, Анна Тух (Бяко Рекордс)
    Перевод: Ptyza
    Работа со звуком: Koss
    MI

    Общее
    Полное имя : L:Костюмы в законе s03 720p NewStudioSuits.s03e01.WEBDL.720p.NewStudio.TV.mkv
    Формат : Matroska
    Версия формата : Version 4 / Version 2
    Размер файла : 1,64 Гбайт
    Продолжительность : 47 м.
    Общий поток : 4909 Кбит/сек
    Дата кодирования : UTC 2013-07-17 19:38:41
    Программа кодирования : mkvmerge v6.3.0 (;You can;t stop me!;) built on Jun 28 2013 20:09:41
    Библиотека кодирования : libebml v1.3.0 libmatroska v1.4.0

    Видео
    Идентификатор : 1
    Формат : AVC
    Формат/Информация : Advanced Video Codec
    Профиль формата : High@L3.1
    Параметр CABAC формата : Нет
    Параметр ReFrames формата : 2 кадра
    Идентификатор кодека : V_MPEG4/ISO/AVC
    Продолжительность : 47 м.
    Битрейт : 4043 Кбит/сек
    Ширина : 1280 пикселей
    Высота : 720 пикселей
    Соотношение сторон : 16:9
    Режим частоты кадров : Постоянный
    Частота кадров : 23,976 кадра/сек
    Цветовое пространство : YUV
    Субдискретизация насыщенности : 4:2:0
    Битовая глубина : 8 бит
    Тип развёртки : Прогрессивная
    Бит/(Пиксели*Кадры) : 0.183
    Размер потока : 1,35 Гбайт (82%)
    Язык : English
    Default : Да
    Forced : Нет
    Основные цвета : BT.709
    Характеристики трансфера : BT.709
    Коэффициенты матрицы : BT.709

    Аудио #1
    Идентификатор : 2
    Формат : AC-3
    Формат/Информация : Audio Coding 3
    Расширение режима : CM (complete main)
    Параметр Endianness формата : Big
    Идентификатор кодека : A_AC3
    Продолжительность : 47 м.
    Вид битрейта : Постоянный
    Битрейт : 384 Кбит/сек
    Каналы : 6 каналов
    Расположение каналов : Front: L C R, Side: L R, LFE
    Частота : 48,0 КГц
    Битовая глубина : 16 бит
    Метод сжатия : С потерями
    Размер потока : 132 Мбайт (8%)
    Язык : Russian

    Аудио #2
    Идентификатор : 3
    Формат : AC-3
    Формат/Информация : Audio Coding 3
    Расширение режима : CM (complete main)
    Параметр Endianness формата : Big
    Идентификатор кодека : A_AC3
    Продолжительность : 47 м.
    Вид битрейта : Постоянный
    Битрейт : 384 Кбит/сек
    Каналы : 6 каналов
    Расположение каналов : Front: L C R, Side: L R, LFE
    Частота : 48,0 КГц
    Битовая глубина : 16 бит
    Метод сжатия : С потерями
    Размер потока : 132 Мбайт (8%)
    Язык : English

    Скриншоты







    Залил: DGEKIGAN
    Размер: 8.82 GB (9472375014 Bytes)
    загрузка...
    Рейтинг →
     (голосов: 1, оценка 4/5, голосовать можно 1 раз )

    Другие торренты по теме:

  • Форс - мажоры / Костюмы в законе / Suits (2012) WEBDLRip by HitWay | NewStudio
  • Форс-мажоры / Suits (2011) WEB-DL 720p | MVO OPT 1 сезон, NewStudio 2 сезон, Original Sub | iPad
  • Форс - мажоры / Костюмы в законе / Suits (2013) WEBDL 1080p | NewStudio
  • Форс-мажоры / Suits (2013) WEB-DLRip | NewStudio
  • Форс-мажоры / Suits (2013) WEB-DLRip | To4ka
  • Форс-мажоры / Suits (2012) WEB-DLRip, HDTVRip | Первый канал
  • Форс-мажоры / Suits (2012) WEB-DL 720p, HDTVRip 720p | Первый канал
  • Форс-мажоры / Suits (2012) WEB-DL 1080p | Первый канал, NewStudio


    • Комментарии (0):

      Информация

      Информация

        Посетители, находящиеся в группе Гости, не могут оставлять комментарии в данной новости.

        ↓ Меню



        ↓ Опрос

        А Вы добавили сайт в закладки?
        Да
        Не


        Top 10 за месяц (Фильмы)