.
Авторизация | Регистрация
Хочешь лучшие торренты? Добавь свой email!
Добавить
» » Я, Робот / I, Robot (2004) BDRip-AVC от 0ptimus | D, P, P2, A торрент скачать бесплатно




    Я, Робот / I, Robot (2004) BDRip-AVC от 0ptimus | D, P, P2, A торрент скачать бесплатно

    Опубликовал: Админ | Дата: 27-02-2015, 11:09 | Просмотров: 378



    Информация о фильме
    Название: Я, Робот
    Оригинальное название: I, Robot
    Год выхода: 2004
    Жанр: Фантастика, боевик, триллер, детектив
    Режиссер: Алекс Пройас
    В ролях: Уилл Смит, Бриджет Мойнэхэн, Алан Тьюдик, Джеймс Кромуэлл, Брюс Гринву, Адриан Рикар, Чи МакБрайд, Джерри Вассерман, Фиона Хоган, Питер Шинкода, Терри Чен, Дэвид Нэйсом, Скотт Хейндл, Шарон Уилкинс, Крэйг Марч, Кайанна Кокс, Даррен Мур, Аарон Дуглас, Шейла Дайсон, Бобби Л. Стюарт, Николя Кросби, Эмили Теннант, Майкл Ст. Джон Смит, Трэвис Уэбстер, Роджер Хэскет, Тиффани Линдолл-Найт, Анджела Мур

    О фильме:
    Действие фильма происходит в далеком будущем (2035 г.), где роботы являются обычными помощниками человека. Главный герой — полицейский, не переваривающий роботов, расследует дело об убийстве, в которое оказывается вовлечен робот. Речь идет о возможном нарушении Закона о Роботах (робот никогда не поднимет руки на человека), что, в принципе, невозможно. Ситуация близка к катастрофической: если машины могут нарушать этот закон, то уже ничто не остановит их от захвата контроля над людьми, тем более, что человечество уже давно стало полностью зависимо от роботов…



    Страна: США, Германия
    Студия: 20th Century Fox Film Corporation, Canlaws Productions, Davis Entertainment, Laurence Mark Productions, Mediastream Vierte Film GmbH Co. Vermarktungs KG, Overbrook Entertainment
    Продолжительность: 01:54:43
    Перевод: Дублированный, профессиональный (многоголосый закадровый), профессиональный (двухголосый закадровый), авторский (одноголосый закадровый)

    Файл
    Кодек: h264
    Качество: BDRip-AVC
    Видео: MPEG-4 AVC, 2774 Кбит/с, 1024х438, 23.976 кадр/с

    Звук:
    • №1: Русский (AC3, 6 ch, 384 Кбит/с) Дублированный
    • №2: Русский (AC3, 6 ch, 384 Кбит/с) Профессиональный многоголосый R5
    • №3: Русский (AC3, 6 ch, 384 Кбит/с) Авторский одноголосый Андрей Гаврилов
    • №4: Английский (АС3, 6 ch, 384 Кбит/с)
    Отдельно:
    • №5: Русский (AC3, 6 ch, 384 Кбит/с) Профессиональный двухголосый Tycoon
    • №6: Русский (AC3, 6 ch, 384 Кбит/с) Авторский одноголосый Юрий Живов
    • №7: Русский (AC3, 6 ch, 384 Кбит/с) Авторский одноголосый Евгений Рудой
    • №8: Украинский (AC3, 2 ch, 192 Кбит/с) Профессиональный многоголосый

    Субтитры: Русские, английские

    Интересно

    • В картине задействована одна из последних разработок компании Audi — шикарный автомобиль Audi Le Mans Quattro. Хотя изначально этот автомобиль изготавливался специально для фильма, боссам компании новая модель настолько понравилась, что они решили запустить её в серийное производство.
    • В одном из окон магазинчика, торгующего антиквариатом, зрители могут увидеть знаменитую собачку-робота AIBO.
    • Сценарий картины был основан на совершенно другом проекте под названием Запаянный (Hardwired). Несмотря на то, что у проекта было довольно мало шансов на выход в свет, композитор Джефф Занелли умудрился написать заглавную композицию для картины.
    • Изначально сценарий не имел ничего общего с произведением известного американского фантаста Айзека Азимова (название которого данный проект сейчас и носит). Однако, после того, как первоначальный сценарий дошел до режиссера, и были выкуплены права на экранизацию произведения Азимова, продюсера приняли решение передать имеющийся под рукой текст Акиве Голдсману с пожеланием скрестить оригинальный рассказ Азимова и уже разработанный сценарий Hardwired.
    • Марко Белтрами был приглашен для участия в проекте под самый занавес работы над ним, и получил в свое распоряжение всего лишь 17 дней для того, чтобы написать порядка 90 минут музыкального сопровождения к фильму.
    • Фильм поставлен по мотивам всех девяти историй, входящих в сборник Айзека Азимова Я, Робот. У сборника есть продолжение в виде четырех романов The Caves of Steel, The Naked Sun, The Robots of Dawn, Robots and Empire.
    • При инициации проекта в 1998 году режиссером значился Брайан Сингер.
    • Экранный образ робота Сонни создавался с использованием тех же технологий, что и Голлум во Властелине Колец Питера Джексона. Пластику и голос робота сыграл актёр Алан Тьюдик
    Награды

    • Оскар, 2005 год
    Номинации:
    — Лучшие визуальные эффекты

    • Сатурн, 2005 год
    Номинации:
    — Лучшие спецэффекты
    — Лучший научно-фантастический фильм

    MediaInfo

    Полное имя : Ya.Robot.2004.x264.BDRip.(AVC).0ptimus.mkv
    Формат : Matroska
    Версия формата : Version 4 / Version 2
    Размер файла : 3,45 Гбайт
    Продолжительность : 1 ч. 54 м.
    Общий поток : 4311 Кбит/сек
    Название фильма : Я, робот / I, Robot / 2004 -=BDRip (AVC) by 0ptimus=-
    Дата кодирования : UTC 2013-08-24 12:00:36
    Программа кодирования : mkvmerge v6.1.0 (;Old Devil;) built on Mar 2 2013 14:32:37
    Библиотека кодирования : libebml v1.3.0 libmatroska v1.4.0

    Видео
    Идентификатор : 1
    Формат : AVC
    Формат/Информация : Advanced Video Codec
    Профиль формата : High@L4.1
    Параметр CABAC формата : Да
    Параметр ReFrames формата : 9 кадров
    Идентификатор кодека : V_MPEG4/ISO/AVC
    Продолжительность : 1 ч. 54 м.
    Битрейт : 2774 Кбит/сек
    Ширина : 1024 пикселя
    Высота : 438 пикселей
    Соотношение сторон : 2,35:1
    Частота кадров : 23,976 кадра/сек
    Цветовое пространство : YUV
    Субдискретизация насыщенности : 4:2:0
    Битовая глубина : 8 бит
    Тип развёртки : Прогрессивная
    Бит/(Пиксели*Кадры) : 0.258
    Размер потока : 2,16 Гбайт (62%)
    Заголовок : Rip by 0ptimus
    Библиотека кодирования : x264 core 125 r2208 d9d2288
    Настройки программы : cabac=1 / ref=9 / deblock=1:-3:-3 / analyse=0x3:0x113 / me=umh / subme=11 / psy=1 / psy_rd=1.00:0.20 / mixed_ref=1 / me_range=32 / chroma_me=1 / trellis=2 / 8x8dct=1 / cqm=0 / deadzone=21,11 / fast_pskip=0 / chroma_qp_offset=-3 / threads=4 / lookahead_threads=1 / sliced_threads=0 / nr=0 / decimate=0 / interlaced=0 / bluray_compat=0 / constrained_intra=0 / bframes=10 / b_pyramid=2 / b_adapt=2 / b_bias=0 / direct=3 / weightb=1 / open_gop=0 / weightp=2 / keyint=240 / keyint_min=23 / scenecut=40 / intra_refresh=0 / rc_lookahead=40 / rc=2pass / mbtree=0 / bitrate=2774 / ratetol=1.0 / qcomp=0.60 / qpmin=0 / qpmax=69 / qpstep=4 / cplxblur=20.0 / qblur=0.5 / vbv_maxrate=50000 / vbv_bufsize=50000 / nal_hrd=none / ip_ratio=1.40 / pb_ratio=1.30 / aq=1:1.00
    Язык : English

    Аудио #1
    Идентификатор : 2
    Формат : AC-3
    Формат/Информация : Audio Coding 3
    Расширение режима : CM (complete main)
    Идентификатор кодека : A_AC3
    Продолжительность : 1 ч. 54 м.
    Вид битрейта : Постоянный
    Битрейт : 384 Кбит/сек
    Каналы : 6 каналов
    Расположение каналов : Front: L C R, Side: L R, LFE
    Частота : 48,0 КГц
    Битовая глубина : 16 бит
    Метод сжатия : С потерями
    Размер потока : 315 Мбайт (9%)
    Заголовок : Дублированный AC3 5.1 @ 384 kbps
    Язык : Russian

    Аудио #2
    Идентификатор : 3
    Формат : AC-3
    Формат/Информация : Audio Coding 3
    Расширение режима : CM (complete main)
    Идентификатор кодека : A_AC3
    Продолжительность : 1 ч. 54 м.
    Вид битрейта : Постоянный
    Битрейт : 384 Кбит/сек
    Каналы : 6 каналов
    Расположение каналов : Front: L C R, Side: L R, LFE
    Частота : 48,0 КГц
    Битовая глубина : 16 бит
    Метод сжатия : С потерями
    Размер потока : 315 Мбайт (9%)
    Заголовок : Многоголосый закадровый R5 AC3 5.1 @ 384 kbps
    Язык : Russian

    Аудио #3
    Идентификатор : 4
    Формат : AC-3
    Формат/Информация : Audio Coding 3
    Расширение режима : CM (complete main)
    Идентификатор кодека : A_AC3
    Продолжительность : 1 ч. 54 м.
    Вид битрейта : Постоянный
    Битрейт : 384 Кбит/сек
    Каналы : 6 каналов
    Расположение каналов : Front: L C R, Side: L R, LFE
    Частота : 48,0 КГц
    Битовая глубина : 16 бит
    Метод сжатия : С потерями
    Размер потока : 315 Мбайт (9%)
    Заголовок : Авторский Андрей Гаврилов AC3 5.1 @ 384 kbps
    Язык : Russian

    Аудио #4
    Идентификатор : 5
    Формат : AC-3
    Формат/Информация : Audio Coding 3
    Расширение режима : CM (complete main)
    Идентификатор кодека : A_AC3
    Продолжительность : 1 ч. 54 м.
    Вид битрейта : Постоянный
    Битрейт : 384 Кбит/сек
    Каналы : 6 каналов
    Расположение каналов : Front: L C R, Side: L R, LFE
    Частота : 48,0 КГц
    Битовая глубина : 16 бит
    Метод сжатия : С потерями
    Размер потока : 315 Мбайт (9%)
    Заголовок : AC3 5.1 @ 384 kbps
    Язык : English

    Текст #1
    Идентификатор : 6
    Формат : UTF-8
    Идентификатор кодека : S_TEXT/UTF8
    Идентификатор кодека/Информация : UTF-8 Plain Text
    Язык : Russian

    Текст #2
    Идентификатор : 7
    Формат : UTF-8
    Идентификатор кодека : S_TEXT/UTF8
    Идентификатор кодека/Информация : UTF-8 Plain Text
    Язык : English

    Меню
    00:00:00.000 : :Opening Titles
    00:01:46.315 : :Del Spooner
    00:03:29.626 : :Spoonerville
    00:06:17.919 : :The Chase
    00:07:56.893 : :Police Station
    00:10:19.077 : :Dr. Laning;s Hologram
    00:12:10.605 : :Lawrence Robertson
    00:15:34.684 : :Susan Calvin;s Tour of USR
    00:17:47.358 : :Sonny
    00:22:51.245 : :Factory Floor
    00:26:13.405 : :Caught
    00:26:58.617 : :The Interrogation
    00:33:22.542 : :The Cafe
    00:36:02.952 : :Lanning;s House
    00:41:22.897 : :The End of a Long Day
    00:46:07.264 : :NS-5 Rollout
    00:49:05.401 : :Following Bread Crumbs
    00:52:13.881 : :You Are Experiencing a Car Accident
    00:55:21.652 : :One on One
    00:58:31.091 : :The Cavalry Arrives
    01:00:06.144 : :Two Sons
    01:01:08.039 : :Spooner;s Past
    01:07:55.488 : :The Bike
    01:08:17.468 : :Sonny;s Dream
    01:10:23.678 : :Robertson;s Office
    01:13:16.600 : :Shell Game
    01:16:53.192 : :Ghosts in the Machine
    01:18:38.839 : :Father and Son
    01:20:13.600 : :Ambush
    01:21:17.664 : :NS-5s Come On-Line
    01:21:56.828 : :Robot Wars
    01:27:28.910 : :The Back Door
    01:28:57.040 : :The Standoff
    01:32:59.032 : :Viki Level
    01:34:44.512 : :Unauthorized Entry
    01:38:08.841 : :Save Her!
    01:41:10.272 : :Reconciliation
    01:44:14.790 : :Sonny;s Future
    01:45:02.129 : :End Titles

    ------------------------------------------------------------------------------
    x264 info: frame I:1578 Avg QP:17.30 size: 63413
    x264 info: frame P:37686 Avg QP:19.59 size: 24970
    x264 info: frame B:125791 Avg QP:20.44 size: 10690
    ------------------------------------------------------------------------------
    Скриншоты




    Релиз от:
    Размер: 4.53 GB (4866164546 Bytes)
    загрузка...
    Рейтинг →
     (голосов: 1, оценка 5/5, голосовать можно 1 раз )

    Другие торренты по теме:

  • Я, робот / I, Robot (2004) BDRip-AVC | D
  • Я, робот / I, Robot (2004) BDRip 720p от HQ-ViDEO | Open Matte
  • Я, робот / I, Robot (2004) HDRip от Scarabey | D | Open Matte
  • Я, робот / I, Robot (2004) BDRip-AVC от HELLYWOOD | D | Open Matte
  • Я, Робот / I, Robot (2004) BDRip-AVC от 0ptimus | D, P, P2, A | Open Matte
  • Я, Робот / I, Robot (2004) BDRip 1080p | Open Matte скачать через торрент бесплатно
  • Я, Робот / I, Robot (2004) BDRip 1080p | 60 fps | D, P2, A скачать через торрент бесплатно
  • Я, робот / I, Robot (2004) DVD9 | D | Коллекционное издание скачать через торрент бесплатно


    • Комментарии (0):

      Информация

      Информация

        Посетители, находящиеся в группе Гости, не могут оставлять комментарии в данной новости.

        ↓ Меню



        ↓ Опрос

        А Вы добавили сайт в закладки?
        Да
        Не


        Top 10 за месяц (Фильмы)