.
Авторизация | Регистрация
» » Универсальный солдат / Universal Soldier (1992) BDRip-AVC от 0ptimus | D, P, P2, A, L1 торрент скачать бесплатно




    Универсальный солдат / Universal Soldier (1992) BDRip-AVC от 0ptimus | D, P, P2, A, L1 торрент скачать бесплатно

    Опубликовал: Админ | Дата: 27-02-2015, 11:09 | Просмотров: 321



    Информация о фильме
    Название: Универсальный солдат
    Оригинальное название: Universal Soldier
    Год выхода: 1992
    Жанр: Фантастика, боевик, драма
    Режиссер: Роланд Эммерих
    В ролях: Жан-Клод Ван Дамм, Дольф Лундгрен, Элли Уокер, Эд О`Росс, Джерри Орбах, Леон Риппи, Тико Уэллс, Ральф Меллер, Роберт Требор, Джин Дэвис

    О фильме:
    Вьетнам, 1969 год… Первая стычка двух американских солдат — Люка и Скотта: Люк не может стрелять в безоружных людей, Скотт же готов убивать и убивать с нечеловечески-яростной жестокостью, о которой свидетельствует ожерелье из ушей, отрезанных им у вьетнамцев. Спустя годы Люк и Скотт вновь оказываются в одном отряде — спецподразделении универсальных солдат, которых бросают на выполнение самых опасных заданий (например, на ликвидацию террористов). Универсального солдата можно попытаться убить, но он будет подниматься вновь и вновь, и если понадобится, то ученые, работающие над сверхсекретным военным проектом, в специальной лаборатории займутся оживлением серьезно пострадавшего универсала. Однако, даже зная об этом, Скотт с упорством маньяка будет преследовать Люка, чтобы сойтись с ним в решающем поединке не на жизнь, а на смерть…



    Страна: США
    Студия: Carolco Pictures Inc., Centropolis Film Productions, IndieProd Company Productions, Studio Canal
    Продолжительность: 01:43:53
    Перевод: Дублированный, профессиональный (многоголосый закадровый), профессиональный (двухголосый закадровый), авторский (одноголосый закадровый), любительский (одноголосый закадровый)

    Файл
    Кодек: h264
    Качество: BDRip-AVC
    Видео: MPEG-4 AVC, 2136 Кбит/с, 1024x436, 23.976 кадр/с

    Звук:
    • №1: Русский (АС3, 2 ch, 192 Кбит/с) Дублированный (со вставками СТС и Лазер-Видео) Хлопушка
    • №2: Русский (АС3, 6 ch, 384 Кбит/с) Профессиональный многоголосый Twister
    • №3: Русский (АС3, 6 ch, 384 Кбит/с) Авторский одноголосый Андрей Гаврилов
    • №4: Английский (АС3, 6 ch, 384 Кбит/с)
    Отдельно:
    • №5: Русский (АС3, 2 ch, 192 Кбит/с) Профессиональный многоголосый CTC
    • №6: Русский (АС3, 2 ch, 192 Кбит/с) Профессиональный многоголосый Лазер-Видео
    • №7: Русский (АС3, 6 ch, 384 Кбит/с) Профессиональный двухголосый AuraFilm
    • №8: Русский (АС3, 2 ch, 192 Кбит/с) Профессиональный двухголосый EA
    • №9: Русский (АС3, 6 ch, 384 Кбит/с) Авторский одноголосый Василий Горчаков
    • №10: Русский (АС3, 2 ch, 192 Кбит/с) Авторский одноголосый Василий Горчаков, VHS
    • №11: Русский (АС3, 2 ch, 192 Кбит/с) Авторский одноголосый Василий Горчаков, для Лазер-Видео
    • №12: Русский (АС3, 2 ch, 192 Кбит/с) Любительский одноголосый Петербуржец
    • №13: Русский (АС3, 2 ch, 192 Кбит/с) Любительский одноголосый
    • №14: Украинский (АС3, 2 ch, 192 Кбит/с) Профессиональный двухголосый 1 1

    Субтитры: Русские, английские (полные), английские (SDH)

    MediaInfo

    Полное имя : Universalnij.soldat.1992.x264.BDRip.(AVC).0ptimus.mkv
    Формат : Matroska
    Версия формата : Version 4 / Version 2
    Размер файла : 2,52 Гбайт
    Продолжительность : 1 ч. 43 м.
    Общий поток : 3478 Кбит/сек
    Название фильма : Универсальный солдат | Universal Soldier 1992 -=BDRip (AVC) by 0ptimus=-
    Дата кодирования : UTC 2013-08-26 06:29:50
    Программа кодирования : mkvmerge v6.1.0 (;Old Devil;) built on Mar 2 2013 14:32:37
    Библиотека кодирования : libebml v1.3.0 libmatroska v1.4.0

    Видео
    Идентификатор : 1
    Формат : AVC
    Формат/Информация : Advanced Video Codec
    Профиль формата : High@L4.1
    Параметр CABAC формата : Да
    Параметр ReFrames формата : 7 кадров
    Идентификатор кодека : V_MPEG4/ISO/AVC
    Продолжительность : 1 ч. 43 м.
    Битрейт : 2136 Кбит/сек
    Ширина : 1024 пикселя
    Высота : 436 пикселей
    Соотношение сторон : 2,35:1
    Частота кадров : 23,976 кадра/сек
    Цветовое пространство : YUV
    Субдискретизация насыщенности : 4:2:0
    Битовая глубина : 8 бит
    Тип развёртки : Прогрессивная
    Бит/(Пиксели*Кадры) : 0.200
    Размер потока : 1,50 Гбайт (59%)
    Библиотека кодирования : x264 core 116 r2044 392e762
    Настройки программы : cabac=1 / ref=7 / deblock=1:-2:-1 / analyse=0x3:0x113 / me=umh / subme=11 / psy=1 / psy_rd=1.00:0.20 / mixed_ref=1 / me_range=48 / chroma_me=1 / trellis=2 / 8x8dct=1 / cqm=0 / deadzone=21,11 / fast_pskip=0 / chroma_qp_offset=-3 / threads=3 / sliced_threads=0 / nr=0 / decimate=1 / interlaced=0 / bluray_compat=0 / constrained_intra=0 / bframes=5 / b_pyramid=2 / b_adapt=2 / b_bias=0 / direct=3 / weightb=1 / open_gop=0 / weightp=2 / keyint=250 / keyint_min=23 / scenecut=40 / intra_refresh=0 / rc=2pass / mbtree=0 / bitrate=2136 / ratetol=1.0 / qcomp=0.60 / qpmin=0 / qpmax=69 / qpstep=4 / cplxblur=20.0 / qblur=0.5 / ip_ratio=1.40 / pb_ratio=1.30 / aq=1:1.00
    Язык : English

    Аудио #1
    Идентификатор : 2
    Формат : AC-3
    Формат/Информация : Audio Coding 3
    Расширение режима : CM (complete main)
    Идентификатор кодека : A_AC3
    Продолжительность : 1 ч. 43 м.
    Вид битрейта : Постоянный
    Битрейт : 192 Кбит/сек
    Каналы : 2 канала
    Расположение каналов : Front: L R
    Частота : 48,0 КГц
    Битовая глубина : 16 бит
    Метод сжатия : С потерями
    Размер потока : 143 Мбайт (6%)
    Заголовок : Дублированный Хлопушка AC3 2.0 @ 192 kbps
    Язык : Russian

    Аудио #2
    Идентификатор : 3
    Формат : AC-3
    Формат/Информация : Audio Coding 3
    Расширение режима : CM (complete main)
    Идентификатор кодека : A_AC3
    Продолжительность : 1 ч. 43 м.
    Вид битрейта : Постоянный
    Битрейт : 384 Кбит/сек
    Каналы : 6 каналов
    Расположение каналов : Front: L C R, Side: L R, LFE
    Частота : 48,0 КГц
    Битовая глубина : 16 бит
    Метод сжатия : С потерями
    Размер потока : 285 Мбайт (11%)
    Заголовок : Многоголосый закадровый Twister AC3 5.1 @ 384 kbps
    Язык : Russian

    Аудио #3
    Идентификатор : 4
    Формат : AC-3
    Формат/Информация : Audio Coding 3
    Расширение режима : CM (complete main)
    Идентификатор кодека : A_AC3
    Продолжительность : 1 ч. 43 м.
    Вид битрейта : Постоянный
    Битрейт : 384 Кбит/сек
    Каналы : 6 каналов
    Расположение каналов : Front: L C R, Side: L R, LFE
    Частота : 48,0 КГц
    Битовая глубина : 16 бит
    Метод сжатия : С потерями
    Размер потока : 285 Мбайт (11%)
    Заголовок : Авторский Андрей Гаврилов AC3 5.1 @ 384 kbps
    Язык : Russian

    Аудио #4
    Идентификатор : 5
    Формат : AC-3
    Формат/Информация : Audio Coding 3
    Расширение режима : CM (complete main)
    Идентификатор кодека : A_AC3
    Продолжительность : 1 ч. 43 м.
    Вид битрейта : Постоянный
    Битрейт : 384 Кбит/сек
    Каналы : 6 каналов
    Расположение каналов : Front: L C R, Side: L R, LFE
    Частота : 48,0 КГц
    Битовая глубина : 16 бит
    Метод сжатия : С потерями
    Размер потока : 285 Мбайт (11%)
    Заголовок : AC3 5.1 @ 384 kbps
    Язык : English

    Текст #1
    Идентификатор : 6
    Формат : UTF-8
    Идентификатор кодека : S_TEXT/UTF8
    Идентификатор кодека/Информация : UTF-8 Plain Text
    Язык : Russian

    Текст #2
    Идентификатор : 7
    Формат : UTF-8
    Идентификатор кодека : S_TEXT/UTF8
    Идентификатор кодека/Информация : UTF-8 Plain Text
    Язык : English

    Текст #3
    Идентификатор : 8
    Формат : UTF-8
    Идентификатор кодека : S_TEXT/UTF8
    Идентификатор кодека/Информация : UTF-8 Plain Text
    Заголовок : SDH
    Язык : English

    Меню
    00:00:00.000 : :Vietnam, 1968
    00:07:18.355 : :M.I.A./Main Titles
    00:12:00.136 : :Hostage Situation
    00:15:22.880 : :Successful Mission
    00:20:28.060 : :Memory Clearance
    00:24:56.745 : :Flashing Back
    00:28:40.052 : :Running on Empty
    00:32:40.667 : :Nice to See You
    00:37:56.441 : :Duck and Cover
    00:42:20.455 : :Asking Questions
    00:47:13.164 : :Break and Ram
    00:52:56.048 : :Giving New Orders
    00:54:59.963 : :Profiling Dr. Gregor
    01:01:20.719 : :I Just Want to Eat
    01:04:29.324 : :Frozen Food Section
    01:08:24.809 : :My Regeneration
    01:12:22.922 : :Not Going Anywhere
    01:16:19.241 : :Desert Chase
    01:20:47.384 : :Coming Home
    01:25:44.806 : :The War is Over
    01:29:13.598 : :Chain of Command
    01:31:52.924 : :Turning the Tide
    01:35:36.981 : :Dishonorable Discharge
    01:38:13.888 : :End Credits

    ----------------------------------------------------------------------
    x264 info: frame I:1526 Avg QP:17.63 size: 65420
    x264 info: frame P:35395 Avg QP:20.07 size: 21134
    x264 info: frame B:112317 Avg QP:22.53 size: 7244
    ----------------------------------------------------------------------
    Скриншоты




    Релиз от:
    Размер: 4.19 GB (4500460071 Bytes)
    загрузка...
    Рейтинг →
     (голосов: 1, оценка 5/5, голосовать можно 1 раз )

    Другие торренты по теме:



      Комментарии (0):

      Информация

      Информация

        Посетители, находящиеся в группе Гости, не могут оставлять комментарии в данной новости.

        ↓ Меню



        ↓ Опрос

        А Вы добавили сайт в закладки?
        Да
        Не


        Top 10 за неделю (Фильмы)