.
Авторизация | Регистрация
» » Экстремалы / Extreme Ops (2002) DVD5 | D торрент скачать бесплатно




    Экстремалы / Extreme Ops (2002) DVD5 | D торрент скачать бесплатно

    Опубликовал: Админ | Дата: 27-02-2015, 11:09 | Просмотров: 475



    Информация о фильме
    Название: Экстремалы
    Оригинальное название: Extreme Ops
    Год выхода: 2002
    Жанр: боевик, триллер, приключения
    Режиссер: Кристиан Дюге
    В ролях: Девон Сава, Бриджит Уилсон, Руперт Грейвз, Руфус Сьюэлл, Хайно Ферх, Джо Эбсолом, Яна Палласке, Жан-Пьер Кастальди, Лилиана Коморовска, Клаус Лёвич

    О фильме:
    Группа экстремалов снимает рекламу у подножья Альп, близ югославской границы. Случайно в поле зрения героев попадает секретный лагерь военного преступника Слободана Павла, и теперь им придется мобилизовать все свои навыки, чтобы выжить…




    Страна: Великобритания, Германия, Люксембург
    Студия: MDP Worldwide, Diamant Cohen Productions, Paramount Pictures
    Продолжительность: 93 мин. / 01:33
    Перевод: профессиональный (полное дублирование)

    Файл
    Кодек: MPEG2
    Качество: DVD5
    Видео: PAL 16:9 (720x576) VBR 4899 Kbps, 25.000 fps
    Звук 1: Dolby AC3, 6ch, 48.0 KHz, 384 Kbps русский, английский
    Звук 2: DTS 6 ch, 48.0 KHz, 755 Kbps русский
    Субтитры: русские, английские

    MediaInfo
    General
    Complete name : D:EXTREMALYVIDEO_TSVTS_01_1.VOB
    Format : MPEG-PS
    File size : 1 024 MiB
    Duration : 21mn 51s
    Overall bit rate mode : Variable
    Overall bit rate : 6 552 Kbps

    Video
    ID : 224 (0xE0)
    Format : MPEG Video
    Format version : Version 2
    Format profile : Main@Main
    Format settings, BVOP : No
    Format settings, Matrix : Default
    Format settings, GOP : M=5, N=26
    Duration : 21mn 51s
    Bit rate mode : Variable
    Bit rate : 4 899 Kbps
    Maximum bit rate : 7 000 Kbps
    Width : 720 pixels
    Height : 576 pixels
    Display aspect ratio : 2.40:1
    Frame rate : 25.000 fps
    Standard : PAL
    Color space : YUV
    Chroma subsampling : 4:2:0
    Bit depth : 8 bits
    Scan type : Interlaced
    Scan order : Top Field First
    Compression mode : Lossy
    Bits/(Pixel*Frame) : 0.473
    Time code of first frame : 00:00:00:00
    Time code source : Group of pictures t_head
    Stream size : 766 MiB (75%)
    Color primaries : BT.601 PAL
    Transfer characteristics : BT.470 System B, BT.470 System G
    Matrix coefficients : BT.601

    Audio #1
    ID : 189 (0xBD)-128 (0x80)
    Format : AC-3
    Format/Info : Audio Coding 3
    Mode extension : CM (complete main)
    Format settings, Endianness : Big
    Muxing mode : DVD-Video
    Duration : 21mn 50s
    Bit rate mode : Constant
    Bit rate : 384 Kbps
    Channel count : 6 channels
    Channel positions : Front: L C R, Side: L R, LFE
    Sampling rate : 48.0 KHz
    Bit depth : 16 bits
    Compression mode : Lossy
    Stream size : 60.0 MiB (6%)

    Audio #2
    ID : 189 (0xBD)-130 (0x82)
    Format : AC-3
    Format/Info : Audio Coding 3
    Mode extension : CM (complete main)
    Format settings, Endianness : Big
    Muxing mode : DVD-Video
    Duration : 21mn 50s
    Bit rate mode : Constant
    Bit rate : 384 Kbps
    Channel count : 6 channels
    Channel positions : Front: L C R, Side: L R, LFE
    Sampling rate : 48.0 KHz
    Bit depth : 16 bits
    Compression mode : Lossy
    Stream size : 60.0 MiB (6%)

    Audio #3
    ID : 189 (0xBD)-137 (0x89)
    Format : DTS
    Format/Info : Digital Theater Systems
    Mode : 16
    Format settings, Endianness : Big
    Muxing mode : DVD-Video
    Duration : 21mn 50s
    Bit rate mode : Constant
    Bit rate : 755 Kbps
    Channel count : 6 channels
    Channel positions : Front: L C R, Side: L R, LFE
    Sampling rate : 48.0 KHz
    Bit depth : 24 bits
    Compression mode : Lossy
    Stream size : 118 MiB (12%)

    Text #1
    ID : 189 (0xBD)-32 (0x20)
    Format : RLE
    Format/Info : Run-length encoding
    Muxing mode : DVD-Video

    Text #2
    ID : 189 (0xBD)-33 (0x21)
    Format : RLE
    Format/Info : Run-length encoding
    Muxing mode : DVD-Video

    Menu

    Скриншоты

    Залил: carisha
    Размер: 4.30 GB (4620695552 Bytes)
    загрузка...
    Рейтинг →
     (голосов: 1, оценка 3/5, голосовать можно 1 раз )

    Другие торренты по теме:

  • Дальнобойщики - экстремалы / Truckers of the Extreme (1996) SATRip торрент скачать бесплатно
  • Экстремалы / Extreme Ops (2002) DVDRip-AVC от NNMClub | D, P скачать торрент бесплатно


    • Комментарии (0):

      Информация

      Информация

        Посетители, находящиеся в группе Гости, не могут оставлять комментарии в данной новости.

        ↓ Меню



        ↓ Опрос

        А Вы добавили сайт в закладки?
        Да
        Не


        Top 10 за неделю (Фильмы)