.
Авторизация | Регистрация




Марни / Marnie (1964) BDRip-AVC 720p торрент скачать бесплатно

Опубликовал: Админ | Дата: 27-02-2015, 11:09 | Просмотров: 478



Информация о фильме
Название: Марни
Оригинальное название: Marnie
Год выхода: 1964
Режиссер: Альфред Хичкок / Alfred Hitchcock
В ролях: Типпи Хедрен, Дайан Бэйкер, Шон Коннери, Мартин Габел, Луиз Лэтэм, Боб Суини, Милтон Селзер, Алан Напье, Генри Бекман, Эдит Эвансон, Мэриетт Хартли, Брюс Дерн, С. Джон Лаунер, Мег Уайлли, Джон Элвин, Кимберли Бек, Линден Чайлз, Руперт Кросс, Джон Харт, Эммалин Хенри, Альфред Хичкок, Кеннер Дж. Кемп, Луиз Лоример, Милтон Парсонс, Кармен Филлипс, Мелоди Томас Скотт, Берт Стивенс, Хэл Таггарт

О фильме:
Героиня фильма Марни Эдгар устраивается на работу в различные фирмы под чужим именем и, проработав некоторое время, исчезает с деньгами компаний, не оставляя никаких следов. Она неуловима, так как постоянно меняет не только имена, но и внешность. Марк Ратлэнд, деловой партнер одной из бывших жертв Марни, разоблачает ее, когда она устраивается к нему на работу. Но вместо того, чтобы сдать Марни полиции, Марк шантажом заставляет ее выйти за него замуж. Он узнает о глубоко сидящем в ней страхе перед мужчинами, сексом, грозами и красным цветом…



Страна: США
Продолжительность: 02:10:23
Перевод: 1. Профессиональный многоголосый
2. Дублированный

Файл
Кодек: h.264 AVC High@L4.1
Качество: BDRip 720p
Видео: 1 280 x 696,5 683 Kbps, 23.976 fps
Звук:
Аудио 1: Русский MVO AC3 2.0 192 kb,
Аудио 2: Русский DUB AC3 2.0 448 kb,
Аудио 3: English AC3 2.0 448 kb,
Субтитры: Русский, Английский, главы

Скриншоты










Скрытый текст
Video
ID : 1
Format : AVC
Format/Info : Advanced Video Codec
Format profile : High@L4.1
Format settings, CABAC : Yes
Format settings, ReFrames : 5 frames
Codec ID : V_MPEG4/ISO/AVC
Duration : 2h 10mn
Bit rate : 5 683 Kbps
Width : 1 280 pixels
Height : 696 pixels
Display aspect ratio : 1.85:1
Frame rate mode : Constant
Frame rate : 23.976 fps
Color space : YUV
Chroma subsampling : 4:2:0
Bit depth : 8 bits
Scan type : Progressive
Bits/(Pixel*Frame) : 0.266
Stream size : 5.07 GiB (82%)
Writing library : x264 core 128 r2216 198a7ea
Encoding settings : cabac=1 / ref=5 / deblock=1:0:0 / analyse=0x3:0x113 / me=umh / subme=8 / psy=1 / psy_rd=1.00:0.00 / mixed_ref=1 / me_range=16 / chroma_me=1 / trellis=1 / 8x8dct=1 / cqm=0 / deadzone=21,11 / fast_pskip=1 / chroma_qp_offset=-2 / threads=12 / lookahead_threads=2 / sliced_threads=0 / nr=0 / decimate=1 / interlaced=0 / bluray_compat=0 / constrained_intra=0 / bframes=3 / b_pyramid=2 / b_adapt=2 / b_bias=0 / direct=3 / weightb=1 / open_gop=0 / weightp=2 / keyint=240 / keyint_min=24 / scenecut=40 / intra_refresh=0 / rc_lookahead=50 / rc=2pass / mbtree=1 / bitrate=5683 / ratetol=1.0 / qcomp=0.60 / qpmin=0 / qpmax=69 / qpstep=4 / cplxblur=20.0 / qblur=0.5 / ip_ratio=1.40 / aq=1:1.00
Language : Russian
Default : Yes
Forced : No

Audio #1
ID : 2
Format : AC-3
Format/Info : Audio Coding 3
Mode extension : CM (complete main)
Format settings, Endianness : Big
Codec ID : A_AC3
Duration : 2h 10mn
Bit rate mode : Constant
Bit rate : 192 Kbps
Channel(s) : 2 channels
Channel positions : Front: L R
Sampling rate : 48.0 KHz
Bit depth : 16 bits
Compression mode : Lossy
Stream size : 179 MiB (3%)
Title : MVO
Language : Russian
Default : Yes
Forced : No

Audio #2
ID : 3
Format : AC-3
Format/Info : Audio Coding 3
Mode extension : CM (complete main)
Format settings, Endianness : Big
Codec ID : A_AC3
Duration : 2h 10mn
Bit rate mode : Constant
Bit rate : 448 Kbps
Channel(s) : 2 channels
Channel positions : Front: L R
Sampling rate : 48.0 KHz
Bit depth : 16 bits
Compression mode : Lossy
Stream size : 418 MiB (7%)
Title : Дублированный
Language : Russian
Default : No
Forced : No

Audio #3
ID : 4
Format : AC-3
Format/Info : Audio Coding 3
Mode extension : CM (complete main)
Format settings, Endianness : Big
Codec ID : A_AC3
Duration : 2h 10mn
Bit rate mode : Constant
Bit rate : 448 Kbps
Channel(s) : 2 channels
Channel positions : Front: L R
Sampling rate : 48.0 KHz
Bit depth : 16 bits
Compression mode : Lossy
Stream size : 418 MiB (7%)
Title : original
Language : English
Default : No
Forced : No

Text #1
ID : 5
Format : PGS
Muxing mode : zlib
Codec ID : S_HDMV/PGS
Codec ID/Info : The same subtitle format used on BDs/HD-DVDs
Language : English
Default : No
Forced : No

Text #2
ID : 6
Format : UTF-8
Codec ID : S_TEXT/UTF8
Codec ID/Info : UTF-8 Plain Text
Title : Русские
Language : Russian
Default : Yes
Forced : No

Text #3
ID : 7
Format : UTF-8
Codec ID : S_TEXT/UTF8
Codec ID/Info : UTF-8 Plain Text
Language : Russian
Default : No
Forced : No

Text #4
ID : 8
Format : UTF-8
Codec ID : S_TEXT/UTF8
Codec ID/Info : UTF-8 Plain Text
Language : English
Default : No
Forced : No

Menu
00:00:00.000 : en:00:00:00.000
00:01:59.119 : en:00:01:59.119
00:08:47.986 : en:00:08:47.986
00:18:52.548 : en:00:18:52.548
00:25:58.682 : en:00:25:58.682
00:28:50.228 : en:00:28:50.228
00:34:55.552 : en:00:34:55.552
00:39:58.730 : en:00:39:58.730
00:43:56.676 : en:00:43:56.676
00:48:59.353 : en:00:48:59.353
01:00:33.088 : en:01:00:33.088
01:07:44.811 : en:01:07:44.811
01:19:32.226 : en:01:19:32.226
01:30:45.398 : en:01:30:45.398
01:37:39.896 : en:01:37:39.896
01:45:05.090 : en:01:45:05.090
01:49:52.711 : en:01:49:52.711
01:55:55.699 : en:01:55:55.699
01:59:09.976 : en:01:59:09.976
02:09:28.552 : en:02:09:28.552


Залил: Shanti9
Размер: 6.18 GB (6640149736 Bytes)
загрузка...
Рейтинг →
 (голосов: 1, оценка 3/5, голосовать можно 1 раз )

Другие торренты по теме:

  • Вспоминая Марни / Omoide no Marnie (2014) TVRip | Трейлер скачать через торрент бесплатно
  • Воспоминания Марни / Omoide no Marnie (2014) HDRip от KinoXa | КПК скачать торрент бесплатно
  • Марни / Marnie (1964) BDRip от MediaClub | КПК скачать торрент бесплатно
  • Марни / Marnie (1964) Blu-ray 1080p | EUR Transfer | D скачать торрент бесплатно
  • Воспоминания о Марни / Omoide no Marnie (2014) скачать торрент бесплатно


    • Комментарии (0):

      Информация

      Информация

        Посетители, находящиеся в группе Гости, не могут оставлять комментарии в данной новости.

        ↓ Меню



        ↓ Опрос

        А Вы добавили сайт в закладки?
        Да
        Не


        Top 10 за неделю (Фильмы)