.
Авторизация | Регистрация
Хочешь лучшие торренты? Добавь свой email!
Добавить
» » Железный человек: Трилогия / Iron Man: Trilogy (2008-2013) BDRip-AVC торрент скачать бесплатно




    Железный человек: Трилогия / Iron Man: Trilogy (2008-2013) BDRip-AVC торрент скачать бесплатно

    Опубликовал: Админ | Дата: 27-02-2015, 11:09 | Просмотров: 429



    Название: Железный человек
    Оригинальное название: Iron Man
    Год выпуска: 2008-2013
    Жанр: Фантастика, боевик, приключения
    Режиссер: Джон Фавро, Шейн Блэк
    В ролях: Роберт Дауни-мл., Гвинет Пэлтроу, Дон Чидл, Гай Пирс, Бен Кингсли, Ребекка Холл, Джеймс Бэдж Дэйл, Уильям Сэдлер, Стефани Чостак, Эштон Хэмилтон, Ти Симпкинс, Стэн Ли, Джон Фавро

    Описание:
    Железный человек: Миллиардер изобретатель Тони Старк попадает в плен к Афганским террористам, которые пытаются заставить его создать оружие массового поражения. В тайне от своих захватчиков Старк конструирует высокотехнологичную киберброню, которая помогает ему сбежать. Однако по возвращению в США он узнаёт, что в совете директоров его фирмы плетётся заговор, чреватый страшными последствиями. Используя своё последнее изобретение, Старк пытается решить проблемы своей компании радикально…
    Железный человек 2: Прошло полгода с тех пор, как мир узнал, что миллиардер-изобретатель Тони Старк является обладателем уникальной кибер-брони Железного человека. Общественность требует, чтобы Старк передал технологию брони правительству США, но Тони не хочет разглашать её секреты, потому что боится, что она попадёт не в те руки. Между тем, Иван Ванко — сын русского учёного когда-то работавшего на фирму Старка, но потом уволенного и лишенного всего, намерен отомстить Тони за беды своей семьи. Для чего сооружает своё высокотехнологичное оружие.
    Железный человек 3: Когда мир Старка рушится на его глазах по вине неизвестных противников, Тони жаждет найти виновных и свести с ними счеты. Оказавшись в безвыходной ситуации, Старк может рассчитывать только на себя и свою изобретательность, чтобы защитить тех, кто ему дорог. Это становится настоящим испытанием для героя, которому придется не только сражаться с коварным врагом, но и разобраться в себе, чтобы найти ответ на вопрос, который давно его тревожит: что важнее — человек или костюм?

    Страна: США, Китай, DMG Entertainment, Marvel Studios Inc, Noble Media, Outlaw Sinema, Paramount Pictures
    Продолжительность: 3 x ~ 02:06:00
    Перевод: Дублированный

    Качество: BDRip AVC
    Видео: MPEG-4 AVC, ~ 1800 Кбит/с, ~ 1024х426
    Аудио rus: AC3, 6 ch, 448 Кбит/с
    Аудио eng: AC3, 6 ch, 448 Кбит/с

    Семпл

    Инфо
    Полное имя : D:zheleznyi.chelovek.3.2013.x264.BDRip.(AVC).mkv
    Формат : Matroska
    Версия формата : Version 2
    Размер файла : 2,46 Гбайт
    Продолжительность : 2 ч. 10 м.
    Общий поток : 2698 Кбит/сек
    Дата кодирования : UTC 2013-08-29 17:00:28
    Программа кодирования : mkvmerge v4.0.0 (;The Stars were mine;) сборка от Jun 6 2010 16:18:42
    Библиотека кодирования : libebml v1.0.0 libmatroska v1.0.0

    Видео
    Идентификатор : 1
    Формат : AVC
    Формат/Информация : Advanced Video Codec
    Профиль формата : High@L4.1
    Параметр CABAC формата : Да
    Параметр ReFrames формата : 9 кадров
    Идентификатор кодека : V_MPEG4/ISO/AVC
    Продолжительность : 2 ч. 10 м.
    Битрейт : 1800 Кбит/сек
    Ширина : 1024 пикселя
    Высота : 426 пикселей
    Соотношение сторон : 2,40:1
    Режим частоты кадров : Постоянный
    Частота кадров : 23,976 кадра/сек
    Цветовое пространство : YUV
    Субдискретизация насыщенности : 4:2:0
    Битовая глубина : 8 бит
    Тип развёртки : Прогрессивная
    Бит/(Пиксели*Кадры) : 0.172
    Размер потока : 1,59 Гбайт (65%)
    Библиотека кодирования : x264 core 133 r2334 a3ac64b
    Настройки программы : cabac=1 / ref=9 / deblock=1:-3:-3 / analyse=0x3:0x133 / me=umh / subme=11 / psy=1 / psy_rd=1.00:0.20 / mixed_ref=1 / me_range=48 / chroma_me=1 / trellis=2 / 8x8dct=1 / cqm=0 / deadzone=21,11 / fast_pskip=0 / chroma_qp_offset=-3 / threads=12 / lookahead_threads=3 / sliced_threads=0 / nr=0 / decimate=0 / interlaced=0 / bluray_compat=0 / constrained_intra=0 / bframes=10 / b_pyramid=2 / b_adapt=2 / b_bias=0 / direct=3 / weightb=1 / open_gop=0 / weightp=2 / keyint=240 / keyint_min=23 / scenecut=40 / intra_refresh=0 / rc=2pass / mbtree=0 / bitrate=1800 / ratetol=1.0 / qcomp=0.60 / qpmin=0 / qpmax=69 / qpstep=4 / cplxblur=20.0 / qblur=0.5 / ip_ratio=1.40 / pb_ratio=1.30 / aq=1:1.00
    Default : Да
    Forced : Нет

    Аудио #1
    Идентификатор : 2
    Формат : AC-3
    Формат/Информация : Audio Coding 3
    Расширение режима : CM (complete main)
    Параметр Endianness формата : Big
    Идентификатор кодека : A_AC3
    Продолжительность : 2 ч. 10 м.
    Вид битрейта : Постоянный
    Битрейт : 448 Кбит/сек
    Каналы : 6 каналов
    Расположение каналов : Front: L C R, Side: L R, LFE
    Частота : 48,0 КГц
    Битовая глубина : 16 бит
    Метод сжатия : С потерями
    Размер потока : 418 Мбайт (17%)
    Язык : Russian
    Default : Нет
    Forced : Нет

    Аудио #2
    Идентификатор : 3
    Формат : AC-3
    Формат/Информация : Audio Coding 3
    Расширение режима : CM (complete main)
    Параметр Endianness формата : Big
    Идентификатор кодека : A_AC3
    Продолжительность : 2 ч. 10 м.
    Вид битрейта : Постоянный
    Битрейт : 448 Кбит/сек
    Каналы : 6 каналов
    Расположение каналов : Front: L C R, Side: L R, LFE
    Частота : 48,0 КГц
    Битовая глубина : 16 бит
    Метод сжатия : С потерями
    Размер потока : 418 Мбайт (17%)
    Язык : English
    Default : Да
    Forced : Нет


    Скриншоты


    Размер: 7.41 GB (7954921965 Bytes)
    загрузка...
    Рейтинг →
     (голосов: 1, оценка 5/5, голосовать можно 1 раз )

    Другие торренты по теме:

  • Железный человек 2 / Iron Man 2 (2010) BDRip-AVC от 0ptimus | D, A
  • Железный человек 3 / Iron Man 3 (2013) HDTVRip 1080p | Трейлер
  • Железный Человек: Восстание Техновора / Iron Man: Rise of Technovore (2013) BDRip 720p | L1
  • OST - Железный человек / Iron Man (2008) MP3
  • OST - Железный человек 3 / Iron man 3 (2013) MP3
  • Железный Человек: Приключения в броне / Iron Man: Armored Adventures (2011) WEB-DLRip
  • OST - Железный человек: Трилогия / Iron man: Trilogy (2008 - 2013) MP3
  • Железный человек 3 / Iron Man 3 (2013) WEB-DLRip от Youtracker | iTunes


    • Комментарии (0):

      Информация

      Информация

        Посетители, находящиеся в группе Гости, не могут оставлять комментарии в данной новости.

        ↓ Меню



        ↓ Опрос

        А Вы добавили сайт в закладки?
        Да
        Не


        Top 10 за месяц (Фильмы)