.
Авторизация | Регистрация
» » Колония / The Colony (2013) WEB-DLRip-AVC от FireBit-Films NoLimits-Team | L2 торрент скачать бесплатно




    Колония / The Colony (2013) WEB-DLRip-AVC от FireBit-Films NoLimits-Team | L2 торрент скачать бесплатно

    Опубликовал: Админ | Дата: 27-02-2015, 11:09 | Просмотров: 296



    Информация о фильме
    Название: Колония
    Оригинальное название: The Colony
    Год выпуска: 2013
    Жанр: Фантастика, боевик, триллер
    Режиссер: Джефф Ренфро
    В ролях: Лоуренс Фишборн, Кевин Зегерс, Билл Пэкстон, Шарлотта Салливан, Джон Тенч, Аттикус Дин Митчелл, Дрю Вигевер, Романо Орзари, Эрл Паско, Лиза Берри

    О фильме: После природного катаклизма, под ледяной поверхностью, покрывшей Землю, оставшиеся в живых люди собрались в Колонию 7 и пытаются выжить несмотря на сокращающиеся запасы продовольствия. Они еще поддерживают связь с Колонией 5, но после того, как контакт с ними теряется, группа смельчаков отправляется в опасную экспедицию, чтобы выяснить, что произошло с их соседями. Преодолев тяжелейший путь герои сталкиваются с опасностью во много раз превосходящую природную угрозу холода…



    Выпущено: Канада, Alcina Pictures, Item 7, Mad Samurai Productions
    Продолжительность: 01:34:17
    Перевод: Любительский (двухголосый, закадровый)

    Файл
    Качество: WEB-DLRip-AVC
    Формат: MKV
    Видео: MPEG-4 AVC, 1024x432 (2,40:1), 1825 Кбит/сек, 0.172 Бит/(Пиксели*Кадры)
    Аудио: Русский, AC3, 6 ch, 384 Кбит/с

    MediaInfo:
    Общее
    Уникальный идентификатор : 186925431797111775537393660327340908007 (0x8CA08755617A1D8088A10BA553759DE7)
    Полное имя : The.Colony.2013.WEB-DLRip-AVC.H264.mkv
    Формат : Matroska
    Версия формата : Version 2
    Размер файла : 1,45 Гбайт
    Продолжительность : 1 ч. 34 м.
    Общий поток : 2207 Кбит/сек
    Дата кодирования : UTC 2013-08-29 05:17:22
    Программа кодирования : mkvmerge v5.8.0 (;No Sleep / Pillow;) built on Sep 2 2012 15:37:04
    Библиотека кодирования : libebml v1.2.3 libmatroska v1.3.0

    Видео
    Идентификатор : 1
    Формат : AVC
    Формат/Информация : Advanced Video Codec
    Профиль формата : High@L4.1
    Параметр CABAC формата : Да
    Параметр ReFrames формата : 11 кадров
    Идентификатор кодека : V_MPEG4/ISO/AVC
    Продолжительность : 1 ч. 34 м.
    Битрейт : 1825 Кбит/сек
    Ширина : 1024 пикселя
    Высота : 432 пикселя
    Соотношение сторон : 2,40:1
    Режим частоты кадров : Постоянный
    Частота кадров : 23,976 кадра/сек
    Цветовое пространство : YUV
    Субдискретизация насыщенности : 4:2:0
    Битовая глубина : 8 бит
    Тип развёртки : Прогрессивная
    Бит/(Пиксели*Кадры) : 0.172
    Размер потока : 1,17 Гбайт (81%)
    Библиотека кодирования : x264 core 125 r2208 d9d2288
    Настройки программы : cabac=1 / ref=11 / deblock=1:-1:-1 / analyse=0x3:0x133 / me=umh / subme=10 / psy=1 / psy_rd=1.00:0.10 / mixed_ref=1 / me_range=32 / chroma_me=1 / trellis=2 / 8x8dct=1 / cqm=0 / deadzone=21,11 / fast_pskip=0 / chroma_qp_offset=-3 / threads=3 / lookahead_threads=1 / sliced_threads=0 / nr=0 / decimate=1 / interlaced=0 / bluray_compat=0 / constrained_intra=0 / bframes=8 / b_pyramid=2 / b_adapt=2 / b_bias=0 / direct=3 / weightb=1 / open_gop=0 / weightp=2 / keyint=240 / keyint_min=23 / scenecut=40 / intra_refresh=0 / rc=2pass / mbtree=0 / bitrate=1825 / ratetol=1.0 / qcomp=0.60 / qpmin=0 / qpmax=69 / qpstep=4 / cplxblur=20.0 / qblur=0.5 / ip_ratio=1.40 / pb_ratio=1.30 / aq=1:1.00
    Default : Да
    Forced : Нет

    Аудио
    Идентификатор : 2
    Формат : AC-3
    Формат/Информация : Audio Coding 3
    Расширение режима : CM (complete main)
    Параметр Endianness формата : Big
    Идентификатор кодека : A_AC3
    Продолжительность : 1 ч. 34 м.
    Вид битрейта : Постоянный
    Битрейт : 384 Кбит/сек
    Каналы : 6 каналов
    Расположение каналов : Front: L C R, Side: L R, LFE
    Частота : 48,0 КГц
    Битовая глубина : 16 бит
    Метод сжатия : С потерями
    Размер потока : 259 Мбайт (17%)
    Default : Да
    Forced : Нет

    Скриншоты:


    Релиз от: Релиз группа:
    Размер: 1.45 GB (1560496915 Bytes)
    загрузка...
    Рейтинг →
     (голосов: 1, оценка 3/5, голосовать можно 1 раз )

    Другие торренты по теме:

  • Колония / Double Team (1997) HDTVRip торрент скачать бесплатно
  • Софокл - Трагедии: Царь Эдип. Эдип в Колоне. Антигона (2005) MP3 торрент скачать бесплатно
  • Колония / The Colony (2013) DVDRip | L2 торрент скачать бесплатно
  • Колония / The Colony (2013) WEB-DL 720p | L2 торрент скачать бесплатно
  • Колония / The Colony (2013) WEB-DLRip-AVC | L2 торрент скачать бесплатно
  • Колония / The Colony (2013) WEB-DL 1080p | L2 торрент скачать бесплатно
  • Колония / The Colony (2013) WEB-DLRip-AVC от ExKinoRay | L2 торрент скачать бесплатно
  • Колония / The Colony (2013) WEB-DLRip от BitTracker | L2 торрент скачать бесплатно


    • Комментарии (0):

      Информация

      Информация

        Посетители, находящиеся в группе Гости, не могут оставлять комментарии в данной новости.

        ↓ Меню



        ↓ Опрос

        А Вы добавили сайт в закладки?
        Да
        Не


        Top 10 за неделю (Фильмы)