.
Авторизация | Регистрация
» » Стартрек: Возмездие / Star Trek Into Darkness (2013) BDRip-AVC | D, L1 торрент скачать бесплатно




    Стартрек: Возмездие / Star Trek Into Darkness (2013) BDRip-AVC | D, L1 торрент скачать бесплатно

    Опубликовал: Админ | Дата: 27-02-2015, 11:09 | Просмотров: 335



    Информация о фильме
    Название: Стартрек: Возмездие
    Оригинальное название: Star Trek Into Darkness
    Год выпуска: 2013
    Жанр: Фантастика, боевик, приключения

    Режиссер: Джей Джей Абрамс
    В ролях: Крис Пайн, Закари Куинто, Зои Салдана, Карл Урбан, Бенедикт Камбербэтч, Саймон Пегг, Элис Ив, Антон Ельчин, Джон Чо, Питер Уэллер

    Описание: Вернувшись на Землю, команда корабля Энтерпрайз обнаруживает, что деятельность и принципы их организации подорваны изнутри. Флот скован необъяснимым ужасом и бездействует, пока мир все глубже погружается в бездну.Капитан Кирк берет на себя руководство операцией по поимке злодея, ответственного за этот хаос и способного уничтожить все человечество.В запутанной игре не на жизнь, а на смерть, любовь и дружба будут принесены в жертву ради единственного, что осталось у Кирка — его команды.



    Выпущено: США, Bad Robot, Kurtzman/Orci, Paramount Pictures, Skydance Productions
    Продолжительность: 02:12:05
    Озвучивание: Дублированное звук с TS, Любительское (одноголосое) Andi

    Файл
    Качество: BDRip-AVC Рип с Star Trek Into Darkness 2013 2D Blu-ray 1080p AVC TrueHD 7.1-HDWinG
    Видео: x264, 960x400 (2.40:1), 23.9760 fps, 1917 Кbps, 0.208 bit/pixel
    Аудио I: rus (Dub): MP3, 128 kb/s (2 ch)
    Аудио II: rus (Andi): MP3, 128 kb/s (2 ch)
    Аудио III: eng: AC3, 224 kb/s (2 ch)
    Субтитры: русские (полные по дубляжу с авторским voronine переводом начальной сцены (первые 5 минут фильма))
    Скачать: Сэмпл

    x264@log
    x264 info: frame I:1443 Avg QP:17.29 size: 59922
    x264 info: frame P:50845 Avg QP:20.74 size: 18758
    x264 info: frame B:137745 Avg QP:22.04 size: 6194
    x264 info: consecutive B-frames: 6.0% 6.3% 12.1% 23.5% 12.7% 24.7% 5.5% 2.8% 3.1% 2.7% 0.6%
    MediaInfo
    Complete name :Star.Trek.Into.Darkness.2013.x264.BDRip.AVC-ed_rez.mkv
    Format : Matroska
    Format version : Version 4 / Version 2
    File size : 2.20 GiB
    Duration : 2h 12mn
    Overall bit rate : 2 386 Kbps
    Movie name : Star Trek Into Darkness (2013) encoded by ed_rez
    Encoded date : UTC 2013-08-29 12:12:13
    Writing application : mkvmerge v6.3.0 (;You can;t stop me!;) built on Jun 28 2013 20:09:41
    Writing library : libebml v1.3.0 libmatroska v1.4.0

    Video
    ID : 1
    Format : AVC
    Format/Info : Advanced Video Codec
    Format profile : High@L4.1
    Format settings, CABAC : Yes
    Format settings, ReFrames : 9 frames
    Codec ID : V_MPEG4/ISO/AVC
    Duration : 2h 12mn
    Bit rate : 1 917 Kbps
    Width : 960 pixels
    Height : 400 pixels
    Display aspect ratio : 2.40:1
    Frame rate mode : Constant
    Frame rate : 23.976 fps
    Color space : YUV
    Chroma subsampling : 4:2:0
    Bit depth : 8 bits
    Scan type : Progressive
    Bits/(Pixel*Frame) : 0.208
    Stream size : 1.71 GiB (78%)
    Title : Star Trek Into Darkness (2013)
    Writing library : x264 core 133 r2334 a3ac64b
    Encoding settings : cabac=1 / ref=9 / deblock=1:-3:-3 / analyse=0x3:0x113 / me=umh / subme=10 / psy=1 / psy_rd=1.10:0.20 / mixed_ref=1 / me_range=32 / chroma_me=1 / trellis=2 / 8x8dct=1 / cqm=0 / deadzone=21,11 / fast_pskip=0 / chroma_qp_offset=-3 / threads=12 / lookahead_threads=3 / sliced_threads=0 / nr=0 / decimate=0 / interlaced=0 / bluray_compat=0 / constrained_intra=0 / bframes=10 / b_pyramid=2 / b_adapt=2 / b_bias=0 / direct=3 / weightb=1 / open_gop=0 / weightp=2 / keyint=240 / keyint_min=23 / scenecut=40 / intra_refresh=0 / rc_lookahead=100 / rc=2pass / mbtree=0 / bitrate=1917 / ratetol=1.0 / qcomp=0.60 / qpmin=0 / qpmax=69 / qpstep=4 / cplxblur=20.0 / qblur=0.5 / vbv_maxrate=50000 / vbv_bufsize=62500 / nal_hrd=none / ip_ratio=1.40 / pb_ratio=1.30 / aq=1:1.00
    Language : English
    Default : Yes
    Forced : No
    Color primaries : BT.709
    Transfer characteristics : BT.709
    Matrix coefficients : BT.709

    Audio #1
    ID : 2
    Format : MPEG Audio
    Format version : Version 1
    Format profile : Layer 3
    Mode : Joint stereo
    Mode extension : MS Stereo
    Codec ID : A_MPEG/L3
    Codec ID/Hint : MP3
    Duration : 2h 12mn
    Bit rate mode : Constant
    Bit rate : 128 Kbps
    Channel count : 2 channels
    Sampling rate : 48.0 KHz
    Compression mode : Lossy
    Stream size : 121 MiB (5%)
    Title : DUB TS, MP3, 2 ch, 128 Kbps
    Writing library : LAME3.99r
    Encoding settings : -m j -V 4 -q 0 -lowpass 17 -b 128
    Language : Russian
    Default : Yes
    Forced : No

    Audio #2
    ID : 3
    Format : MPEG Audio
    Format version : Version 1
    Format profile : Layer 3
    Mode : Joint stereo
    Mode extension : MS Stereo
    Codec ID : A_MPEG/L3
    Codec ID/Hint : MP3
    Duration : 2h 4mn
    Bit rate mode : Constant
    Bit rate : 128 Kbps
    Channel count : 2 channels
    Sampling rate : 48.0 KHz
    Compression mode : Lossy
    Stream size : 114 MiB (5%)
    Title : VO-Andi, AC3, 2 ch, 128 Kbps
    Writing library : LAME3.99r
    Encoding settings : -m j -V 4 -q 0 -lowpass 17 -b 128
    Language : Russian
    Default : No
    Forced : No

    Audio #3
    ID : 4
    Format : AC-3
    Format/Info : Audio Coding 3
    Mode extension : CM (complete main)
    Format settings, Endianness : Big
    Codec ID : A_AC3
    Duration : 2h 12mn
    Bit rate mode : Constant
    Bit rate : 224 Kbps
    Channel count : 2 channels
    Channel positions : Front: L R
    Sampling rate : 48.0 KHz
    Bit depth : 16 bits
    Compression mode : Lossy
    Stream size : 212 MiB (9%)
    Title : Original, AC3, 2 ch, 224 Kbps
    Language : English
    Default : No
    Forced : No

    Text
    ID : 5
    Format : UTF-8
    Codec ID : S_TEXT/UTF8
    Codec ID/Info : UTF-8 Plain Text
    Title : Voronin
    Language : Russian
    Default : Yes
    Forced : No
    Скриншоты


    Размер: 2.20 GB (2363943847 Bytes)
    загрузка...
    Рейтинг →
     (голосов: 1, оценка 3/5, голосовать можно 1 раз )

    Другие торренты по теме:

  • Стартрек: Возмездие / Star Trek Into Darkness (2013) HDRip-720p | D | Трейлер торрент скачать бесплатно
  • OST - Стартрек: Возмездие / Star Trek: Into Darkness (2013) AAC торрент скачать бесплатно
  • Стартрек: Возмездие / Star Trek Into Darkness (2013) HDRip | Звук с TS торрент скачать бесплатно
  • Стартрек: Возмездие / Star Trek Into Darkness (2013) BDRip 720p | Звук с TS торрент скачать бесплатно
  • Стартрек: Возмездие / Star Trek Into Darkness (2013) BDRip 1080p | 3D-Video | halfOU | Звук с TS торрент скачать бесплатно
  • Стартрек: Возмездие / Star Trek Into Darkness (2013) Blu-Ray Remux | Звук с TS торрент скачать бесплатно
  • Стартрек: Возмездие / Star Trek Into Darkness (2013) BDRip | Звук с TS торрент скачать бесплатно
  • Стартрек: Возмездие / Star Trek Into Darkness (2013) BDRip 720p | L1 торрент скачать бесплатно


    • Комментарии (0):

      Информация

      Информация

        Посетители, находящиеся в группе Гости, не могут оставлять комментарии в данной новости.

        ↓ Меню



        ↓ Опрос

        А Вы добавили сайт в закладки?
        Да
        Не


        Top 10 за неделю (Фильмы)