.
Авторизация | Регистрация
Хочешь лучшие торренты? Добавь свой email!
Добавить
» » Дрожь земли 4: Легенда начинается / Tremors 4: The Legend Begins (2004) BDRip от MediaClub | P, A торрент скачать бесплатно




    Дрожь земли 4: Легенда начинается / Tremors 4: The Legend Begins (2004) BDRip от MediaClub | P, A торрент скачать бесплатно

    Опубликовал: Админ | Дата: 27-02-2015, 11:09 | Просмотров: 330



    Информация о фильме
    Название: Дрожь земли 4: Легенда начинается
    Оригинальное название: Tremors 4: The Legend Begins
    Год выпуска: 2004
    Жанр: Фантастика, приключения, боевик, комедия, вестерн
    Режиссер: Сид Уилсон
    В ролях: Майкл Гросс, Сара Ботсфорд, Билли Драго, Брент Роум, Аугуст Шелленберг, Дж.И. Фриман, Ло Минг, Лидия Лук, Сэм Ли

    Описание: После того, как жителей отдаленного городка в штате Невада стал безжалостно истреблять невидимый враг, владелец копей Хайрем Гаммер нанимает лучшего стрелка на Диком Западе по кличке Келли Черная Рука, чтобы тот расправился со зловещими существами, оставляющими уважаемого бизнесмена без прибыли! Надо заметить, что мистер Гаммер является прапрадедом Берта Гаммера - отважного охотника и эксперта по истреблению прожорливых подземных хищников. Так что, как Вы, наверное, уже догадались, кровопролитных схваток с огромными плотоядными червями теперь не избежать!




    Страна: США
    Студия: Stampede Entertainment
    Продолжительность: 01:40:59
    Перевод: Профессиональный многоголосый, авторский одноголосый

    Файл
    Качество: BDRip
    Видео: XviD, 2056 Кбит/с, 720x384, 23.976 кадр/с
    Аудио #1: Русский (AC3, 2 ch, 192 Кбит/с) / Профессиональный многоголосый (СТС)
    Аудио #2: Русский (AC3, 6 ch, 448 Кбит/с) / Авторский одноголосый (С. Визгунов)
    Аудио #3: Русский (AC3, 2 ch, 192 Кбит/с) / Авторский одноголосый (А. Дольский)

    Семпл

    Скриншоты



    О релизе
    За исходный Blu-Ray спасибо HDClub
    За предоставленный постер огромное спасибо команде: Media-Art-Club

    MI
    Общее
    Полное имя : D:Mои раздачиDrozhj.zemli-4.2004.BDRip-MediaClub.avi
    Формат : AVI
    Формат/Информация : Audio Video Interleave
    Профиль формата : OpenDML
    Размер файла : 2,05 Гбайт
    Продолжительность : 1 ч. 40 м.
    Общий поток : 2912 Кбит/сек
    Название фильма : -=MediaClub-kaspr=-
    Программа кодирования : VirtualDubMod 1.5.10.2 (build 2542/release)
    Библиотека кодирования : VirtualDubMod build 2542/release

    Видео
    Идентификатор : 0
    Формат : MPEG-4 Visual
    Профиль формата : Advanced Simple@L5
    Параметр BVOP формата : 2
    Параметр QPel формата : Нет
    Параметр GMC формата : Без точки перехода
    Параметр матрицы формата : Выборочная
    Идентификатор кодека : XVID
    Идентификатор кодека/Подсказка : XviD
    Продолжительность : 1 ч. 40 м.
    Битрейт : 2056 Кбит/сек
    Ширина : 720 пикселей
    Высота : 384 пикселя
    Соотношение сторон : 1,85:1
    Частота кадров : 23,976 кадра/сек
    Цветовое пространство : YUV
    Субдискретизация насыщенности : 4:2:0
    Битовая глубина : 8 бит
    Тип развёртки : Прогрессивная
    Метод сжатия : С потерями
    Бит/(Пиксели*Кадры) : 0.310
    Размер потока : 1,45 Гбайт (71%)
    Библиотека кодирования : XviD 73

    Аудио #1
    Идентификатор : 1
    Формат : AC-3
    Формат/Информация : Audio Coding 3
    Расширение режима : CM (complete main)
    Параметр Endianness формата : Big
    Идентификатор кодека : 2000
    Продолжительность : 1 ч. 40 м.
    Вид битрейта : Постоянный
    Битрейт : 192 Кбит/сек
    Каналы : 2 канала
    Расположение каналов : Front: L R
    Частота : 48,0 КГц
    Битовая глубина : 16 бит
    Метод сжатия : С потерями
    Размер потока : 139 Мбайт (7%)
    Выравнивание : Разделение по промежуткам
    Продолжительность промежутка : 42 мс. (1,00 видеокадр)
    Время предзагрузки промежутка : 500 мс.

    Аудио #2
    Идентификатор : 2
    Формат : AC-3
    Формат/Информация : Audio Coding 3
    Расширение режима : CM (complete main)
    Параметр Endianness формата : Big
    Идентификатор кодека : 2000
    Продолжительность : 1 ч. 40 м.
    Вид битрейта : Постоянный
    Битрейт : 448 Кбит/сек
    Каналы : 6 каналов
    Расположение каналов : Front: L C R, Side: L R, LFE
    Частота : 48,0 КГц
    Битовая глубина : 16 бит
    Метод сжатия : С потерями
    Размер потока : 324 Мбайт (15%)
    Выравнивание : Разделение по промежуткам
    Продолжительность промежутка : 42 мс. (1,00 видеокадр)
    Время предзагрузки промежутка : 500 мс.

    Аудио #3
    Идентификатор : 3
    Формат : AC-3
    Формат/Информация : Audio Coding 3
    Расширение режима : CM (complete main)
    Параметр Endianness формата : Big
    Идентификатор кодека : 2000
    Продолжительность : 1 ч. 40 м.
    Вид битрейта : Постоянный
    Битрейт : 192 Кбит/сек
    Каналы : 2 канала
    Расположение каналов : Front: L R
    Частота : 48,0 КГц
    Битовая глубина : 16 бит
    Метод сжатия : С потерями
    Размер потока : 139 Мбайт (7%)
    Выравнивание : Разделение по промежуткам
    Продолжительность промежутка : 42 мс. (1,00 видеокадр)
    Время предзагрузки промежутка : 500 мс.

    Релиз:
    Залил: kaspr
    Размер: 2.05 GB (2205898752 Bytes)
    загрузка...
    Рейтинг →
     (голосов: 1, оценка 5/5, голосовать можно 1 раз )

    Другие торренты по теме:

  • Дрожь земли / Tremors (1990) BDRip-AVC
  • Дрожь земли 2: Повторный удар / Tremors II: Aftershocks (1996) BDRip 1080p от Youtracker
  • Дрожь земли 4: Легенда начинается / Tremors 4: The Legend Begins (2004) BDRip 720p от MediaClub | P, A
  • Дрожь земли 3 / Tremors 3: Back to Perfection (2001) BDRip 1080p от Youtracker
  • Дрожь земли 4: Легенда начинается / Tremors 4: The Legend Begins (2004) BDRip 1080p от Youtracker
  • Дрожь земли 4: Легенда начинается / Tremors 4: The Legend Begins (2004) BDRemux 1080p от MediaClub | P, A
  • Дрожь земли 2: Повторный удар / Tremors II: Aftershocks (1996) BDRip от HQCLUB скачать через торрент бесплатно
  • Дрожь земли 3 / Tremors 3: Back to Perfection (2001) BDRip от HQCLUB скачать через торрент бесплатно


    • Комментарии (0):

      Информация

      Информация

        Посетители, находящиеся в группе Гости, не могут оставлять комментарии в данной новости.

        ↓ Меню



        ↓ Опрос

        А Вы добавили сайт в закладки?
        Да
        Не


        Top 10 за месяц (Фильмы)