.
Авторизация | Регистрация
» » Ледник / Frost (2012) DVDRip от Youtracker | D | лицензия торрент скачать бесплатно




    Ледник / Frost (2012) DVDRip от Youtracker | D | лицензия торрент скачать бесплатно

    Опубликовал: Админ | Дата: 27-02-2015, 11:09 | Просмотров: 450

    Добро пожаловать в его владения



    Страна: Исландия, Финляндия
    Студия: Axman Productions, Kisi Production...
    Жанр: ужасы, фантастика, триллер
    Год выпуска: 2012
    Продолжительность: 01:18:46

    Перевод: Профессиональный (дублированный)
    Субтитры: нет
    Оригинальная аудиодорожка: нет

    Режиссер: Рейнир Лингдаль / Reynir Lyngdal

    В ролях: Анна Гунндис Гюдмундсдоттир, Хельги Бьёрнссон, Эйнар Дагбьяртссон, Валур Фрейр Эйнарссон, Элма Лиза Гуннарсдотир, Бьяртур Гудмундссон, Халлур Инголфссон, Хилмир Дженссон, Хилмар Йонсон, Хальфдан Педерсен...

    Описание: Молодая пара ученых отправляется на скованную льдами исследовательскую базу. Весь ее персонал бесследно исчез. Они — единственные живые души на сотни километров. Но чем ближе ученые оказываются к чудовищной разгадке, тем отчетливее понимают, за каждым их шагом наблюдает кто-то третий — таинственное нечто. И они — его последние гости.



    Исходник: DVD5 R5
    Тип релиза: DVDRip,
    Контейнер: AVI

    Видео: 720x320 (2.25:1), 25.000 fps, XVID ~2203 kbps avg, 0.383 bit/pixel
    Аудио: Русский 48 kHz, AC3, 6 ch, 448.00 kbps Constant
    MediaInfo

    Общее
    Полное имя : Lednik.2012.D.DVDRipYoutracker_by_avproh.avi
    Формат : AVI
    Формат/Информация : Audio Video Interleave
    Размер файла : 1,46 Гбайт
    Продолжительность : 1 ч. 18 м.
    Общий поток : 2661 Кбит/сек
    Программа кодирования : VirtualDubMod 1.5.10.3 | www.virtualdub-fr.org || (build 2550/release)
    Библиотека кодирования : VirtualDubMod build 2550/release

    Видео
    Идентификатор : 0
    Формат : MPEG-4 Visual
    Профиль формата : Advanced Simple@L5
    Параметр BVOP формата : 1
    Параметр QPel формата : Нет
    Параметр GMC формата : Без точки перехода
    Параметр матрицы формата : Выборочная
    Идентификатор кодека : XVID
    Идентификатор кодека/Подсказка : XviD
    Продолжительность : 1 ч. 18 м.
    Битрейт : 2203 Кбит/сек
    Ширина : 720 пикселей
    Высота : 320 пикселей
    Соотношение сторон : 2,25:1
    Частота кадров : 25,000 кадров/сек
    Цветовое пространство : YUV
    Субдискретизация насыщенности : 4:2:0
    Битовая глубина : 8 бит
    Тип развёртки : Прогрессивная
    Метод сжатия : С потерями
    Бит/(Пиксели*Кадры) : 0.383
    Размер потока : 1,21 Гбайт (83%)
    Библиотека кодирования : XviD 65

    Аудио
    Идентификатор : 1
    Формат : AC-3
    Формат/Информация : Audio Coding 3
    Расширение режима : CM (complete main)
    Параметр Endianness формата : Big
    Идентификатор кодека : 2000
    Продолжительность : 1 ч. 18 м.
    Вид битрейта : Постоянный
    Битрейт : 448 Кбит/сек
    Каналы : 6 каналов
    Расположение каналов : Front: L C R, Side: L R, LFE
    Частота : 48,0 КГц
    Битовая глубина : 16 бит
    Метод сжатия : С потерями
    Размер потока : 252 Мбайт (17%)
    Выравнивание : Разделение по промежуткам
    Продолжительность промежутка : 40 мс. (1,00 видеокадр)
    Время предзагрузки промежутка : 500 мс.

    Скриншоты



    Залил: avproh
    Размер: 1.46 GB (1572061184 Bytes)
    загрузка...
    Рейтинг →
     (голосов: 1, оценка 5/5, голосовать можно 1 раз )

    Другие торренты по теме:

  • Ледник / Frost (2012) DVDRip от Youtracker | P1 | лицензия торрент скачать бесплатно
  • Ледник / Frost (2012) DVDRip-AVC от Youtracker | P1 | лицензия торрент скачать бесплатно
  • Ледник / Frost (2012) DVD5 R5 от Youtracker | P1 | лицензия торрент скачать бесплатно
  • Кровавый ледник / Blutgletscher / Schlaraffenhaus (2013) BDRip 720p | L1 торрент скачать бесплатно
  • Кровавый ледник / Schlaraffenhaus / Blood Glacier / The Station (2013) BDRip 1080p от CINEMANIA | L1 торрент скачать бесплатно
  • Кровавый ледник / Schlaraffenhaus / Blood Glacier / The Station (2013) HDRip от CINEMANIA | L1 торрент скачать бесплатно
  • Кровавый ледник / Blutgletscher / Schlaraffenhaus (2013) HDRip-AVC от Leo.pard | L1 торрент скачать бесплатно
  • Ледников / Сыщик вне закона (2013) SATRip от Files-x торрент скачать бесплатно


    • Комментарии (0):

      Информация

      Информация

        Посетители, находящиеся в группе Гости, не могут оставлять комментарии в данной новости.

        ↓ Меню



        ↓ Опрос

        А Вы добавили сайт в закладки?
        Да
        Не


        Top 10 за неделю (Фильмы)