.
Авторизация | Регистрация
Хочешь лучшие торренты? Добавь свой email!
Добавить
» » Элитное общество / The Bling Ring (2013) DVDRip от Youtracker | D | лицензия торрент скачать бесплатно




    Элитное общество / The Bling Ring (2013) DVDRip от Youtracker | D | лицензия торрент скачать бесплатно

    Опубликовал: Админ | Дата: 27-02-2015, 11:09 | Просмотров: 1155

    Где украсть красивую жизнь?



    Страна: США, Великобритания, Франция, Германия, Япония
    Студия: American Zoetrope, NALA Films LLC...
    Жанр: драма, криминал
    Год выпуска: 2013
    Продолжительность: 01:26:34

    Перевод: Профессиональный (дублированный)
    Субтитры: нет
    Оригинальная аудиодорожка: нет

    Режиссер: София Коппола / Sofia Coppola

    В ролях: Израэль Бруссар, Кэти Чанг, Эмма Уотсон, Таисса Фармига, Клер Элис Жюльен, Гэвин Россдэйл, Джорджия Рок, Лесли Манн, Карлос Миранда, Стэйси Эдвардс...

    Описание: В поисках адреналина и приключений пятеро отчаянных подростков ради прикола стали навещать богатые особняки в окрестностях Голливуда. Наведываясь в гости к Линдси Лохан, Орландо Блуму, Пэрис Хилтон и другим голливудским звездам, девушки, конечно, больше интересовались дизайнерской одеждой и драгоценностями, а юноши — просто деньгами. Совершив десять краж со взломом, ребятки награбили больше трех миллионов долларов…



    Исходник: DVD5 R5
    Тип релиза: DVDRip
    Контейнер: AVI

    Видео: 720x384 (1.85:1), 25.000 fps, XVID ~1066 kbps avg, 0.154 bit/pixel
    Аудио: Русский 48 kHz, МР3, 2 ch, 128.00 kbps Constant
    MediaInfo

    Общее
    Полное имя : Elitnoye.obshestvo.2013.D.DVDRip.745MB_Youtracker_by_avproh.avi
    Формат : AVI
    Формат/Информация : Audio Video Interleave
    Размер файла : 745 Мбайт
    Продолжительность : 1 ч. 26 м.
    Общий поток : 1204 Кбит/сек
    Программа кодирования : VirtualDubModRus 1.5.10.2 (build 2542/release)
    Библиотека кодирования : VirtualDubMod build 2542/release

    Видео
    Идентификатор : 0
    Формат : MPEG-4 Visual
    Профиль формата : Advanced Simple@L5
    Параметр BVOP формата : 1
    Параметр QPel формата : Нет
    Параметр GMC формата : Без точки перехода
    Параметр матрицы формата : Выборочная
    Идентификатор кодека : XVID
    Идентификатор кодека/Подсказка : XviD
    Продолжительность : 1 ч. 26 м.
    Битрейт : 1066 Кбит/сек
    Ширина : 720 пикселей
    Высота : 384 пикселя
    Соотношение сторон : 1,85:1
    Частота кадров : 25,000 кадров/сек
    Цветовое пространство : YUV
    Субдискретизация насыщенности : 4:2:0
    Битовая глубина : 8 бит
    Тип развёртки : Прогрессивная
    Метод сжатия : С потерями
    Бит/(Пиксели*Кадры) : 0.154
    Размер потока : 660 Мбайт (89%)
    Библиотека кодирования : XviD 65

    Аудио
    Идентификатор : 1
    Формат : MPEG Audio
    Версия формата : Version 1
    Профиль формата : Layer 3
    Режим : Joint stereo
    Расширение режима : MS Stereo
    Идентификатор кодека : 55
    Идентификатор кодека/Подсказка : MP3
    Продолжительность : 1 ч. 26 м.
    Вид битрейта : Постоянный
    Битрейт : 128 Кбит/сек
    Каналы : 2 канала
    Частота : 48,0 КГц
    Метод сжатия : С потерями
    Размер потока : 79,3 Мбайт (11%)
    Выравнивание : Соединение по промежуткам
    Продолжительность промежутка : 40 мс. (1,00 видеокадр)
    Время предзагрузки промежутка : 504 мс.

    Скриншоты



    Залил: avproh
    Размер: 745.25 MB (781447168 Bytes)
    загрузка...
    Рейтинг →
     (голосов: 1, оценка 3/5, голосовать можно 1 раз )

    Другие торренты по теме:

  • Элитное общество / The Bling Ring (2013) CAMRip
  • Элитное общество / The Bling Ring (2013) DVDRip-AVC от Youtracker | D | лицензия
  • Элитное общество / The Bling Ring (2013) DVD5 R5 от Youtracker | D | лицензия
  • Элитное общество / The Bling Ring (2013) BDRip 720p | Лицензия
  • Элитное общество / The Bling Ring (2013) BDRip-AVC от MediaClub | Лицензия
  • Элитное общество / The Bling Ring (2013) BDRip 1080p от NoLimits-Team FireBit-Films
  • Элитное общество / The Bling Ring (2013) BDRip-AVC от Youtracker | D | Лицензия
  • Элитное общество / The Bling Ring (2013) BDRip-AVC от HELLYWOOD | D | Лицензия


    • Комментарии (0):

      Информация

      Информация

        Посетители, находящиеся в группе Гости, не могут оставлять комментарии в данной новости.

        ↓ Меню



        ↓ Опрос

        А Вы добавили сайт в закладки?
        Да
        Не


        Top 10 за месяц (Фильмы)