.
Авторизация | Регистрация
» » Властелин любви / The Look of Love (2013) HDRip-AVC | Лицензия торрент скачать бесплатно




    Властелин любви / The Look of Love (2013) HDRip-AVC | Лицензия торрент скачать бесплатно

    Опубликовал: Админ | Дата: 27-02-2015, 11:09 | Просмотров: 293



    Информация о фильме
    Название: Властелин любви
    Оригинальное название: The Look of Love
    Год выхода: 2013
    Жанр: драма, биография
    Режиссер: Майкл Уинтерботтом
    В ролях: Стив Куган, Анна Фрил, Имоджен Путс, Тэмсин Эгертон, Крис Эддисон, Джеймс Лэнс, Ширли Хендерсон, Дэвид Уоллиамс, Мэтт Лукас, Саймон Бёрд

    О фильме: Пауль Раймонд был прозван в прессе Королём Сохо из-за принадлежащего ему огромного клуба и невероятного количества недвижимого имущества, что наряду с его порнобизнесом принесло ему состояние в миллиарды фунтов.



    Выпущено: Великобритания, США
    Продолжительность: 01:41:01
    Озвучивание: Дублированное лицензия

    Файл
    Качество: HDRip-AVC Рип с BDRip 720p
    Формат: MKV
    Видео: 1664 kb/s, 1024x432
    Аудио: AC3, 384 kb/s (6 ch)

    Семпл





    MI

    Format : Matroska
    Format version : Version 4 / Version 2
    File size : 1.44 GiB
    Duration : 1h 41mn
    Overall bit rate : 2 046 Kbps
    Movie name : Rip by 03nazar03
    Encoded date : UTC 2013-08-31 10:45:53
    Writing application : mkvmerge v6.1.0 (;Old Devil;) built on Mar 4 2013 09:10:42
    Writing library : libebml v1.3.0 libmatroska v1.4.0

    Video
    ID : 1
    Format : AVC
    Format/Info : Advanced Video Codec
    Format profile : High@L4.1
    Format settings, CABAC : Yes
    Format settings, ReFrames : 10 frames
    Codec ID : V_MPEG4/ISO/AVC
    Duration : 1h 41mn
    Bit rate : 1 664 Kbps
    Width : 1 024 pixels
    Height : 432 pixels
    Display aspect ratio : 2.40:1
    Frame rate : 24.000 fps
    Color space : YUV
    Chroma subsampling : 4:2:0
    Bit depth : 8 bits
    Scan type : Progressive
    Bits/(Pixel*Frame) : 0.157
    Stream size : 1.14 GiB (79%)
    Writing library : x264 core 130 r2273 b3065e6
    Encoding settings : cabac=1 / ref=10 / deblock=1:-3:-3 / analyse=0x3:0x133 / me=umh / subme=11 / psy=1 / psy_rd=1.00:0.20 / mixed_ref=1 / me_range=32 / chroma_me=1 / trellis=2 / 8x8dct=1 / cqm=0 / deadzone=21,11 / fast_pskip=0 / chroma_qp_offset=-3 / threads=12 / lookahead_threads=2 / sliced_threads=0 / nr=0 / decimate=0 / interlaced=0 / bluray_compat=0 / constrained_intra=0 / bframes=7 / b_pyramid=2 / b_adapt=2 / b_bias=0 / direct=3 / weightb=1 / open_gop=0 / weightp=2 / keyint=250 / keyint_min=23 / scenecut=40 / intra_refresh=0 / rc_lookahead=50 / rc=2pass / mbtree=1 / bitrate=1664 / ratetol=1.0 / qcomp=0.60 / qpmin=0 / qpmax=69 / qpstep=4 / cplxblur=20.0 / qblur=0.5 / ip_ratio=1.40 / aq=1:1.00
    Language : English
    Default : Yes
    Forced : No

    Audio
    ID : 2
    Format : AC-3
    Format/Info : Audio Coding 3
    Mode extension : CM (complete main)
    Format settings, Endianness : Big
    Codec ID : A_AC3
    Duration : 1h 41mn
    Bit rate mode : Constant
    Bit rate : 384 Kbps
    Channel(s) : 6 channels
    Channel positions : Front: L C R, Side: L R, LFE
    Sampling rate : 48.0 KHz
    Bit depth : 16 bits
    Compression mode : Lossy
    Stream size : 277 MiB (19%)
    Language : Russian
    Default : Yes
    Forced : No
    Скриншоты

    Размер: 1.44 GB (1550218082 Bytes)
    загрузка...
    Рейтинг →
     (голосов: 1, оценка 3/5, голосовать можно 1 раз )

    Другие торренты по теме:

  • Властелин любви / The Look of Love (2013) HDRip от Youtracker | D | лицензия торрент скачать бесплатно
  • Властелин любви / The Look of Love (2013) BDRip 1080p от Youtracker | D | лицензия торрент скачать бесплатно
  • Властелин любви / The Look of Love (2013) BDRip 720p от Youtracker | D | лицензия торрент скачать бесплатно
  • Властелин любви / The Look of Love (2013) HDRip-AVC от Youtracker | D | лицензия торрент скачать бесплатно
  • Властелин любви / The Look of Love (2013) DVD5 R5 от Youtracker | D | лицензия торрент скачать бесплатно
  • Властелин любви / The Look of Love (2013) HDRip от -=HD-NET=- | КПК торрент скачать бесплатно
  • Властелин любви / The Look of Love (2013) BDRip-AVC от HELLYWOOD | D | Лицензия торрент скачать бесплатно
  • Властелин любви / The Look of Love (2013) BDRip от Rulya74 торрент скачать бесплатно


    • Комментарии (0):

      Информация

      Информация

        Посетители, находящиеся в группе Гости, не могут оставлять комментарии в данной новости.

        ↓ Меню



        ↓ Опрос

        А Вы добавили сайт в закладки?
        Да
        Не


        Top 10 за неделю (Фильмы)