.
Авторизация | Регистрация
Хочешь лучшие торренты? Добавь свой email!
Добавить
» » Ледник / Frost (2012) DVDRip от Youtracker | P1 | лицензия торрент скачать бесплатно




    Ледник / Frost (2012) DVDRip от Youtracker | P1 | лицензия торрент скачать бесплатно

    Опубликовал: Админ | Дата: 27-02-2015, 11:09 | Просмотров: 341

    Добро пожаловать в его владения



    Страна: Исландия, Финляндия
    Студия: Axman Productions, Kisi Production...
    Жанр: ужасы, фантастика, триллер
    Год выпуска: 2012
    Продолжительность: 01:18:46

    Перевод: Профессиональный (одноголосый, закадровый)
    Субтитры: нет
    Оригинальная аудиодорожка: нет

    Режиссер: Рейнир Лингдаль / Reynir Lyngdal

    В ролях: Анна Гунндис Гюдмундсдоттир, Хельги Бьёрнссон, Эйнар Дагбьяртссон, Валур Фрейр Эйнарссон, Элма Лиза Гуннарсдотир, Бьяртур Гудмундссон, Халлур Инголфссон, Хилмир Дженссон, Хилмар Йонсон, Хальфдан Педерсен...

    Описание: Молодая пара ученых отправляется на скованную льдами исследовательскую базу. Весь ее персонал бесследно исчез. Они — единственные живые души на сотни километров. Но чем ближе ученые оказываются к чудовищной разгадке, тем отчетливее понимают, за каждым их шагом наблюдает кто-то третий — таинственное нечто. И они — его последние гости.



    Исходник: DVD5 R5
    Тип релиза: DVDRip
    Контейнер: AVI

    Видео: 720x320 (2.25:1), 25.000 fps, XVID ~1190 kbps avg, 0.207 bit/pixel
    Аудио: Русский 48 kHz, MP3, 2 ch, 128.00 kbps Constant
    MediaInfo

    Общее
    Полное имя : Lednik.2012.D.DVDRip.745MB_Youtracker_by_avproh.avi
    Формат : AVI
    Формат/Информация : Audio Video Interleave
    Размер файла : 748 Мбайт
    Продолжительность : 1 ч. 18 м.
    Общий поток : 1327 Кбит/сек
    Программа кодирования : VirtualDubModRus 1.5.10.2 (build 2542/release)
    Библиотека кодирования : VirtualDubMod build 2542/release

    Видео
    Идентификатор : 0
    Формат : MPEG-4 Visual
    Профиль формата : Advanced Simple@L5
    Параметр BVOP формата : 1
    Параметр QPel формата : Нет
    Параметр GMC формата : Без точки перехода
    Параметр матрицы формата : Выборочная
    Идентификатор кодека : XVID
    Идентификатор кодека/Подсказка : XviD
    Продолжительность : 1 ч. 18 м.
    Битрейт : 1190 Кбит/сек
    Ширина : 720 пикселей
    Высота : 320 пикселей
    Соотношение сторон : 2,25:1
    Частота кадров : 25,000 кадров/сек
    Цветовое пространство : YUV
    Субдискретизация насыщенности : 4:2:0
    Битовая глубина : 8 бит
    Тип развёртки : Прогрессивная
    Метод сжатия : С потерями
    Бит/(Пиксели*Кадры) : 0.207
    Размер потока : 670 Мбайт (90%)
    Библиотека кодирования : XviD 65

    Аудио
    Идентификатор : 1
    Формат : MPEG Audio
    Версия формата : Version 1
    Профиль формата : Layer 3
    Режим : Joint stereo
    Расширение режима : MS Stereo
    Идентификатор кодека : 55
    Идентификатор кодека/Подсказка : MP3
    Продолжительность : 1 ч. 18 м.
    Вид битрейта : Постоянный
    Битрейт : 128 Кбит/сек
    Каналы : 2 канала
    Частота : 48,0 КГц
    Метод сжатия : С потерями
    Размер потока : 72,1 Мбайт (10%)
    Выравнивание : Соединение по промежуткам
    Продолжительность промежутка : 40 мс. (1,00 видеокадр)
    Время предзагрузки промежутка : 504 мс.

    Скриншоты



    Залил: avproh
    Размер: 747.86 MB (784183296 Bytes)
    загрузка...
    Рейтинг →
     (голосов: 1, оценка 4/5, голосовать можно 1 раз )

    Другие торренты по теме:

  • Ледник / Frost (2012) DVDRip от Youtracker | D | лицензия
  • Ледник / Frost (2012) DVDRip-AVC от Youtracker | P1 | лицензия
  • Ледник / Frost (2012) DVD5 R5 от Youtracker | P1 | лицензия
  • Кровавый ледник / Blutgletscher / Schlaraffenhaus (2013) BDRip 720p | L1
  • Кровавый ледник / Schlaraffenhaus / Blood Glacier / The Station (2013) BDRip 1080p от CINEMANIA | L1
  • Кровавый ледник / Schlaraffenhaus / Blood Glacier / The Station (2013) HDRip от CINEMANIA | L1
  • Кровавый ледник / Blutgletscher / Schlaraffenhaus (2013) HDRip-AVC от Leo.pard | L1


    • Комментарии (0):

      Информация

      Информация

        Посетители, находящиеся в группе Гости, не могут оставлять комментарии в данной новости.

        ↓ Меню



        ↓ Опрос

        А Вы добавили сайт в закладки?
        Да
        Не


        Top 10 за месяц (Фильмы)