.
Авторизация | Регистрация
Хочешь лучшие торренты? Добавь свой email!
Добавить
» » Зажигание / Combustin (2013) BDRip 720p | Чистый звук торрент скачать бесплатно




    Зажигание / Combustin (2013) BDRip 720p | Чистый звук торрент скачать бесплатно

    Опубликовал: Админ | Дата: 27-02-2015, 11:09 | Просмотров: 282



    Информация о фильме
    Название: Зажигание
    Оригинальное название: Combusti?n
    Год выхода: 2013
    Жанр: мелодрама, приключения, боевик
    Режиссер: Даниэль Кальпарсоро
    В ролях: Алекс Гонсалес, Адриана Угарте, Альберто Амман, Мария Кастро, Луис Саера, Марта Ниэто, Кристиан Мулас, Хуан Пабло Шук, Мария Каласса

    О фильме: Навас и Ари — идеальная пара и профессиональные мошенники. Она — роковая красотка, соблазняющая богатых мужчин, а он — жестокий налетчик, который их грабит. Все меняется, когда Навас и Ари выбирают себе новую жертву — богатенького красавчика Микеля, в которого Ари влюбляется без памяти…



    Выпущено: Испания
    Продолжительность: 01:43:36
    Озвучивание: Дублированное Чистый звук

    Файл
    Формат: MKV
    Качество: BDRip 720p
    Видео: 6087 kb/s, 1280x544
    Аудио: Russian: AC3, 192 kb/s (2 ch) / Spanish: DTS, 1510 kb/s (6 ch)
    Субтитры: English, Spanish







    MI

    Format : Matroska
    Format version : Version 4 / Version 2
    File size : 5.75 GiB
    Duration : 1h 43mn
    Overall bit rate : 7 947 Kbps
    Movie name : 03nazar03
    Encoded date : UTC 2013-08-31 08:07:48
    Writing application : mkvmerge v6.1.0 (;Old Devil;) built on Mar 4 2013 09:10:42
    Writing library : libebml v1.3.0 libmatroska v1.4.0

    Video
    ID : 1
    Format : AVC
    Format/Info : Advanced Video Codec
    Format profile : High@L4.1
    Format settings, CABAC : Yes
    Format settings, ReFrames : 11 frames
    Codec ID : V_MPEG4/ISO/AVC
    Duration : 1h 43mn
    Bit rate : 6 087 Kbps
    Width : 1 280 pixels
    Height : 544 pixels
    Display aspect ratio : 2.35:1
    Frame rate : 24.000 fps
    Color space : YUV
    Chroma subsampling : 4:2:0
    Bit depth : 8 bits
    Scan type : Progressive
    Bits/(Pixel*Frame) : 0.364
    Stream size : 4.41 GiB (77%)
    Writing library : x264 core 130 r2273 b3065e6
    Encoding settings : cabac=1 / ref=12 / deblock=1:-3:-3 / analyse=0x3:0x113 / me=umh / subme=7 / psy=1 / psy_rd=1.00:0.00 / mixed_ref=1 / me_range=16 / chroma_me=1 / trellis=1 / 8x8dct=1 / cqm=0 / deadzone=21,11 / fast_pskip=1 / chroma_qp_offset=-2 / threads=16 / lookahead_threads=2 / sliced_threads=0 / nr=0 / decimate=1 / interlaced=0 / bluray_compat=0 / constrained_intra=0 / bframes=8 / b_pyramid=1 / b_adapt=1 / b_bias=0 / direct=3 / weightb=1 / open_gop=0 / weightp=2 / keyint=240 / keyint_min=24 / scenecut=40 / intra_refresh=0 / rc_lookahead=50 / rc=crf / mbtree=1 / crf=17.0 / qcomp=0.70 / qpmin=0 / qpmax=69 / qpstep=4 / ip_ratio=1.40 / aq=1:1.00
    Language : English
    Default : Yes
    Forced : No

    Audio #1
    ID : 2
    Format : AC-3
    Format/Info : Audio Coding 3
    Mode extension : CM (complete main)
    Format settings, Endianness : Big
    Codec ID : A_AC3
    Duration : 1h 43mn
    Bit rate mode : Constant
    Bit rate : 192 Kbps
    Channel(s) : 2 channels
    Channel positions : Front: L R
    Sampling rate : 44.1 KHz
    Bit depth : 16 bits
    Compression mode : Lossy
    Stream size : 142 MiB (2%)
    Language : Russian
    Default : Yes
    Forced : No

    Audio #2
    ID : 3
    Format : DTS
    Format/Info : Digital Theater Systems
    Codec ID : A_DTS
    Duration : 1h 43mn
    Bit rate mode : Constant
    Bit rate : 1 510 Kbps
    Channel(s) : 6 channels
    Channel positions : Front: L C R, Side: L R, LFE
    Sampling rate : 48.0 KHz
    Bit depth : 24 bits
    Compression mode : Lossy
    Stream size : 1.09 GiB (19%)
    Language : Spanish
    Default : No
    Forced : No

    Text #1
    ID : 4
    Format : VobSub
    Muxing mode : zlib
    Codec ID : S_VOBSUB
    Codec ID/Info : The same subtitle format used on DVDs
    Language : English
    Default : Yes
    Forced : No

    Text #2
    ID : 5
    Format : VobSub
    Muxing mode : zlib
    Codec ID : S_VOBSUB
    Codec ID/Info : The same subtitle format used on DVDs
    Language : Spanish
    Default : No
    Forced : No

    Menu
    00:00:00.000 : en:00:00:00.000
    00:08:06.292 : en:00:08:06.292
    00:17:20.083 : en:00:17:20.083
    00:25:45.208 : en:00:25:45.208
    00:34:20.708 : en:00:34:20.708
    00:43:27.708 : en:00:43:27.708
    00:51:47.500 : en:00:51:47.500
    01:00:54.750 : en:01:00:54.750
    01:09:25.500 : en:01:09:25.500
    01:16:57.750 : en:01:16:57.750
    01:27:00.292 : en:01:27:00.292
    01:35:02.208 : en:01:35:02.208
    Скриншоты

    Размер: 5.75 GB (6175969631 Bytes)
    загрузка...
    Рейтинг →
     (голосов: 1, оценка 3/5, голосовать можно 1 раз )

    Другие торренты по теме:

  • OST - Зажигание / Combustion (2013) MP3
  • Зажигание / Combustin (2013) HDRip | Чистый звук
  • Зажигание / Combustin (2013) HDRip от -=HD-NET=- | КПК | Чистый звук
  • Зажигание / Combustion (2013) BDRip-AVC от MediaClub | Чистый звук
  • Зажигание / Combustion (2013) BDRip 1080p | Чистый звук
  • Зажигание / Combustin (2013) BDRip-AVC от HELLYWOOD | чистый звук
  • Зажигание / Combustion (2013) HDRip-AVC | D | Чистый звук
  • Зажигание / Combustin (2013) BDRip 720p | Лицензия


    • Комментарии (0):

      Информация

      Информация

        Посетители, находящиеся в группе Гости, не могут оставлять комментарии в данной новости.

        ↓ Меню



        ↓ Опрос

        А Вы добавили сайт в закладки?
        Да
        Не


        Top 10 за месяц (Фильмы)