.
Авторизация | Регистрация
» » Багровые реки 2: Ангелы апокалипсиса / Les rivires pourpres II - Les anges de lapocalypse (2004) DVD5 | D торрент скачать бесплатно




    Багровые реки 2: Ангелы апокалипсиса / Les rivires pourpres II - Les anges de lapocalypse (2004) DVD5 | D торрент скачать бесплатно

    Опубликовал: Админ | Дата: 27-02-2015, 11:09 | Просмотров: 354



    Информация о фильме
    Название: Багровые реки 2: Ангелы апокалипсиса
    Оригинальное название: Les rivi?res pourpres II - Les anges de l;apocalypse
    Год выхода: 2004
    Жанр: боевик, триллер, криминал
    Режиссер: Оливье Даан
    В ролях: Жан Рено, Бенуа Мажимель, Кристофер Ли, Камилль Натта, Джонни Халлидей, Габриель Лазюр, Огустен Легран, Серж Рябукин, Андре Пенверн, Франсис Рено

    О фильме:
    Капитан Пьер Ниман — полицейский. Чертовски хороший полицейский. Один из лучших. Его работа требуется в особенных случаях. Он умный и храбрый, за словом в карман не полезет. Он любит работать один, но зачастую ему требуется напарник, а то и два. Он ненавидит собак, но имеет свою собственную — йоркширского терьера.

    Ему доставляет радость воздать по заслугам бандитам и убийцам, тем более, что они верят в свою безнаказанность, пока не перейдут дорогу Пьеру Ниману. Ниман расследует дело о человеке, замурованном в стену с загадочными знаками. В это время Реда, молодой капитан полиции, находит у дверей церкви полумёртвого двойника Иисуса Христа. Реда полагает, что эта история как-то связана с расследованием Нимана, учеником которого он был в полицейской школе.

    В округе продолжаются убийства: таинственные монахи, обладающие сверхъестественной силой, убивают случайных встречных и исчезают бесследно. При помощи Мари, специалистки по истории религий, Ниман и Реда пытаются найти ответы на все вопросы…




    Страна: Франция, Италия, Великобритания
    Студия: Canal fr, Studio L?gende, TF1 Films Production
    Продолжительность: 97 мин. / 01:37
    Перевод: профессиональный (полное дублирование)

    Файл
    Кодек: MPEG2
    Качество: DVD5
    Видео: PAL 16:9 (720x576) VBR 5573 Kbps, 25.000 fps
    Звук: Dolby AC3, 6 ch, 48.0 KHz, 448 Kbps
    Субтитры: отсутствуют

    MediaInfo
    General
    Complete name : D:BAGROVYE REKI 2VIDEO_TSVTS_01_1.VOB
    Format : MPEG-PS
    File size : 1 024 MiB
    Duration : 23mn 18s
    Overall bit rate mode : Variable
    Overall bit rate : 6 143 Kbps

    Video
    ID : 224 (0xE0)
    Format : MPEG Video
    Format version : Version 2
    Format profile : Main@Main
    Format settings, BVOP : No
    Format settings, Matrix : Custom
    Format settings, GOP : Variable
    Duration : 23mn 18s
    Bit rate mode : Variable
    Bit rate : 5 573 Kbps
    Maximum bit rate : 9 000 Kbps
    Width : 720 pixels
    Height : 576 pixels
    Display aspect ratio : 16:9
    Frame rate : 25.000 fps
    Standard : PAL
    Color space : YUV
    Chroma subsampling : 4:2:0
    Bit depth : 8 bits
    Scan type : Interlaced
    Scan order : Top Field First
    Compression mode : Lossy
    Bits/(Pixel*Frame) : 0.538
    Time code of first frame : 00:00:00:00
    Time code source : Group of pictures t_head
    Stream size : 929 MiB (91%)

    Audio
    ID : 189 (0xBD)-128 (0x80)
    Format : AC-3
    Format/Info : Audio Coding 3
    Mode extension : CM (complete main)
    Format settings, Endianness : Big
    Muxing mode : DVD-Video
    Duration : 23mn 17s
    Bit rate mode : Constant
    Bit rate : 448 Kbps
    Channel count : 6 channels
    Channel positions : Front: L C R, Side: L R, LFE
    Sampling rate : 48.0 KHz
    Bit depth : 16 bits
    Compression mode : Lossy
    Stream size : 74.6 MiB (7%)

    Menu

    Скриншоты

    Залил: carisha
    Размер: 4.29 GB (4609435648 Bytes)
    загрузка...
    Рейтинг →
     (голосов: 1, оценка 3/5, голосовать можно 1 раз )

    Другие торренты по теме:

  • Багровые реки 1, 2 / Les rivires pourpres 1, 2 (2000, 2004) HDRip-AVC | Дилогия | D торрент скачать бесплатно
  • Багровые реки / Les rivires pourpres (2000) DVD5 | P торрент скачать бесплатно
  • Багровые реки: Дилогия / Les Rivieres pourpres: Dilogy (2000-2004) BDRip 720p торрент скачать бесплатно


    • Комментарии (0):

      Информация

      Информация

        Посетители, находящиеся в группе Гости, не могут оставлять комментарии в данной новости.

        ↓ Меню



        ↓ Опрос

        А Вы добавили сайт в закладки?
        Да
        Не


        Top 10 за неделю (Фильмы)