.
Авторизация | Регистрация
» » Властелин любви / The Look of Love (2013) HDRip от Youtracker | D | лицензия торрент скачать бесплатно




    Властелин любви / The Look of Love (2013) HDRip от Youtracker | D | лицензия торрент скачать бесплатно

    Опубликовал: Админ | Дата: 27-02-2015, 11:09 | Просмотров: 286

    Введи нас в искушение



    Страна: Великобритания, США
    Студия: Baby Cow Films, Film Four Ltd....
    Жанр: драма, комедия, биография
    Год выпуска: 2013
    Продолжительность: 01:41:01

    Перевод: Профессиональный (дублированный)
    Субтитры: нет
    Оригинальная аудиодорожка: нет

    Режиссер: Рейнир Лингдаль / Reynir Lyngdal

    В ролях: Стив Куган, Анна Фрил, Имоджен Путс, Тэмсин Эгертон, Крис Эддисон, Джеймс Лэнс, Ширли Хендерсон, Дэвид Уоллиамс, Мэтт Лукас, Саймон Бёрд...

    Описание: Пауль Раймонд был прозван в прессе Королём Сохо из-за принадлежащего ему огромного клуба и невероятного количества недвижимого имущества, что наряду с его порнобизнесом принесло ему состояние в миллиарды фунтов.



    Исходник: The.Look.of.Love.2013.720p.BluRay.DD5.1.x264-EbP DVD5 R5
    Тип релиза: HDRip
    Контейнер: AVI

    Видео: 720x304 (2.35:1), 24.000 fps, XVID ~899 kbps avg, 0.171 bit/pixel
    Аудио: Русский 48 kHz, МР3, 2 ch, 128.00 kbps Constant
    MediaInfo

    Общее
    Полное имя : Vlastelin.lyubvi.2013.D.HDRip.745MB_Youtracker_by_avproh.avi
    Формат : AVI
    Формат/Информация : Audio Video Interleave
    Размер файла : 749 Мбайт
    Продолжительность : 1 ч. 41 м.
    Общий поток : 1036 Кбит/сек
    Программа кодирования : VirtualDubModRus 1.5.10.2 (build 2542/release)
    Библиотека кодирования : VirtualDubMod build 2542/release

    Видео
    Идентификатор : 0
    Формат : MPEG-4 Visual
    Профиль формата : Advanced Simple@L5
    Параметр BVOP формата : 1
    Параметр QPel формата : Нет
    Параметр GMC формата : Без точки перехода
    Параметр матрицы формата : Выборочная
    Идентификатор кодека : XVID
    Идентификатор кодека/Подсказка : XviD
    Продолжительность : 1 ч. 41 м.
    Битрейт : 899 Кбит/сек
    Ширина : 720 пикселей
    Высота : 304 пикселя
    Соотношение сторон : 2,35:1
    Частота кадров : 24,000 кадра/сек
    Цветовое пространство : YUV
    Субдискретизация насыщенности : 4:2:0
    Битовая глубина : 8 бит
    Тип развёртки : Прогрессивная
    Метод сжатия : С потерями
    Бит/(Пиксели*Кадры) : 0.171
    Размер потока : 649 Мбайт (87%)
    Библиотека кодирования : XviD 65

    Аудио
    Идентификатор : 1
    Формат : MPEG Audio
    Версия формата : Version 1
    Профиль формата : Layer 3
    Режим : Joint stereo
    Расширение режима : MS Stereo
    Идентификатор кодека : 55
    Идентификатор кодека/Подсказка : MP3
    Продолжительность : 1 ч. 41 м.
    Вид битрейта : Постоянный
    Битрейт : 128 Кбит/сек
    Каналы : 2 канала
    Частота : 48,0 КГц
    Метод сжатия : С потерями
    Размер потока : 92,5 Мбайт (12%)
    Выравнивание : Соединение по промежуткам
    Продолжительность промежутка : 42 мс. (1,00 видеокадр)
    Время предзагрузки промежутка : 504 мс.

    Скриншоты



    Залил: avproh
    Размер: 748.55 MB (784914432 Bytes)
    загрузка...
    Рейтинг →
     (голосов: 1, оценка 3/5, голосовать можно 1 раз )

    Другие торренты по теме:

  • Властелин любви / The Look of Love (2013) HDRip-AVC | Лицензия торрент скачать бесплатно
  • Властелин любви / The Look of Love (2013) BDRip 1080p от Youtracker | D | лицензия торрент скачать бесплатно
  • Властелин любви / The Look of Love (2013) BDRip 720p от Youtracker | D | лицензия торрент скачать бесплатно
  • Властелин любви / The Look of Love (2013) HDRip-AVC от Youtracker | D | лицензия торрент скачать бесплатно
  • Властелин любви / The Look of Love (2013) DVD5 R5 от Youtracker | D | лицензия торрент скачать бесплатно
  • Властелин любви / The Look of Love (2013) HDRip от -=HD-NET=- | КПК торрент скачать бесплатно
  • Властелин любви / The Look of Love (2013) BDRip-AVC от HELLYWOOD | D | Лицензия торрент скачать бесплатно
  • Властелин любви / The Look of Love (2013) BDRip от Rulya74 торрент скачать бесплатно


    • Комментарии (0):

      Информация

      Информация

        Посетители, находящиеся в группе Гости, не могут оставлять комментарии в данной новости.

        ↓ Меню



        ↓ Опрос

        А Вы добавили сайт в закладки?
        Да
        Не


        Top 10 за неделю (Фильмы)