.
Авторизация | Регистрация
» » Сайлент Хилл / Silent Hill (2006) DVD9 DVD5 | D | Коллекционное издание торрент скачать бесплатно




    Сайлент Хилл / Silent Hill (2006) DVD9 DVD5 | D | Коллекционное издание торрент скачать бесплатно

    Опубликовал: Админ | Дата: 27-02-2015, 11:09 | Просмотров: 447



    Информация о фильме
    Название: Сайлент Хилл
    Оригинальное название: Silent Hill
    Год выхода: 2006
    Жанр: ужасы, детектив
    Режиссер: Кристоф Ганс
    В ролях: Рада Митчелл, Джоделль Ферланд, Лори Холден, Шон Бин, Дебора Кара Ангер, Ким Коутс, Таня Аллен, Элис Крайдж, Коллин Уильямс, Рон Гэбриел

    О фильме:
    Молодая мать, отчаявшись найти лекарство от таинственного заболевания своей дочери Шэрон, отказывается отдать ее в психиатрическую лечебницу. Вместе с Шэрон она отправляется в Сайлент Хилл, город, название которого ее дочь постоянно твердит во сне.

    Несмотря на сопротивление мужа, Роуз убеждена, что найдет там ответы, в которых так нуждается. Но когда они подъезжают к заброшенному городу, на дороге появляется таинственная фигура, Роуз резко тормозит, и машина попадает в аварию… Придя в себя, она обнаруживает, что Шэрон исчезла…

    В компании упрямой женщины-полицейской из городка неподалеку Роуз отправляется на поиски своего ребенка в Сайлент Хилл, место, непохожее ни на одно другое: город покрыт туманом, его населяют странные, проклятые создания, и время от времени он погружается во Мрак, который буквально меняет все, к чему прикасается…

    В поисках дочери Роуз узнает об истории Сайлент Хилла, его пуританском прошлом, полном насилия, и причинах проклятия, висящего над городом. Она понимает, ее ребенок — лишь часть большой, ужасающей головоломки…




    Страна: Канада, Франция
    Студия: Davis-Films, Konami Corporation Ltd.
    Продолжительность: 125 мин. / 02:05
    Перевод: профессиональный (полное дублирование)

    Файл
    Кодек: MPEG2
    Качество: DVD9 DVD5
    Видео: PAL 16:9 (720x576) VBR 5600 Kbps, 25.000 fps
    Звук 1: Dolby AC3, 6 ch, 48.0 KHz, 384 Kbps русский, английский
    Звук 2: DTS 6 ch, 48.0 KHz, 1510 Kbps русский
    Субтитры: русские
    Бонус-Диск: Путь тьмы, Трейлеры, Анонсы

    Коллекционное издание из 2 дисков: DVD9 с фильмом и DVD5 с бонусами
    MediaInfo
    General
    Complete name : E:Silent_Hill_2DVDDVD1VIDEO_TSVTS_04_1.VOB
    Format : MPEG-PS
    File size : 1 024 MiB
    Duration : 17mn 48s
    Overall bit rate mode : Variable
    Overall bit rate : 8 038 Kbps

    Video
    ID : 224 (0xE0)
    Format : MPEG Video
    Format version : Version 2
    Format profile : Main@Main
    Format settings, BVOP : No
    Format settings, Matrix : Custom
    Format settings, GOP : Variable
    Duration : 17mn 48s
    Bit rate mode : Variable
    Bit rate : 5 600 Kbps
    Maximum bit rate : 9 800 Kbps
    Width : 720 pixels
    Height : 576 pixels
    Display aspect ratio : 2.40:1
    Frame rate : 25.000 fps
    Standard : PAL
    Color space : YUV
    Chroma subsampling : 4:2:0
    Bit depth : 8 bits
    Scan type : Interlaced
    Scan order : Top Field First
    Compression mode : Lossy
    Bits/(Pixel*Frame) : 0.540
    Time code of first frame : 00:00:00:00
    Time code source : Group of pictures t_head
    Stream size : 713 MiB (70%)
    Color primaries : BT.601 PAL
    Transfer characteristics : BT.470 System B, BT.470 System G
    Matrix coefficients : BT.601

    Audio #1
    ID : 189 (0xBD)-128 (0x80)
    Format : AC-3
    Format/Info : Audio Coding 3
    Mode extension : CM (complete main)
    Format settings, Endianness : Big
    Muxing mode : DVD-Video
    Duration : 17mn 48s
    Bit rate mode : Constant
    Bit rate : 384 Kbps
    Channel count : 6 channels
    Channel positions : Front: L C R, Side: L R, LFE
    Sampling rate : 48.0 KHz
    Bit depth : 16 bits
    Compression mode : Lossy
    Stream size : 48.9 MiB (5%)

    Audio #2
    ID : 189 (0xBD)-129 (0x81)
    Format : AC-3
    Format/Info : Audio Coding 3
    Mode extension : CM (complete main)
    Format settings, Endianness : Big
    Muxing mode : DVD-Video
    Duration : 17mn 48s
    Bit rate mode : Constant
    Bit rate : 384 Kbps
    Channel count : 6 channels
    Channel positions : Front: L C R, Side: L R, LFE
    Sampling rate : 48.0 KHz
    Bit depth : 16 bits
    Compression mode : Lossy
    Stream size : 48.9 MiB (5%)

    Audio #3
    ID : 189 (0xBD)-138 (0x8A)
    Format : DTS
    Format/Info : Digital Theater Systems
    Mode : 16
    Format settings, Endianness : Big
    Muxing mode : DVD-Video
    Duration : 17mn 48s
    Bit rate mode : Constant
    Bit rate : 1 510 Kbps
    Channel count : 6 channels
    Channel positions : Front: L C R, Side: L R, LFE
    Sampling rate : 48.0 KHz
    Bit depth : 24 bits
    Compression mode : Lossy
    Stream size : 192 MiB (19%)

    Text
    ID : 189 (0xBD)-32 (0x20)
    Format : RLE
    Format/Info : Run-length encoding
    Muxing mode : DVD-Video

    Menu

    Скриншоты

    Залил: carisha
    Размер: 11.06 GB (11876917248 Bytes)
    загрузка...
    Рейтинг →
     (голосов: 1, оценка 3/5, голосовать можно 1 раз )

    Другие торренты по теме:

  • Сайлент Хилл 2 / Silent Hill: Revelation 3D (2012) WEBRip | Звук с TS торрент скачать бесплатно
  • Сайлент Хилл: Дилогия / Silent Hill: Dylogy (2006-2012) BDRip-AVC | D торрент скачать бесплатно
  • OST - Сайлент Хилл / Silent Hill (2006) MP3 торрент скачать бесплатно
  • Silent Hill: Downpour / Сайлент-Хилл: Ливень (2012) PS3 торрент скачать бесплатно
  • Сайлент Хилл / Silent Hill (2006) BDRip-AVC от HQ-ViDEO скачать через торрент бесплатно
  • Сайлент Хилл / Silent Hill (2006) BDRip от HQ-ViDEO торрент скачать бесплатно
  • Сайлент Хилл / Silent Hill (2006) BDRip 720p | 60 fps | D, P2, A торрент скачать бесплатно
  • Сайлент Хилл: Дилогия / Silent Hill: Dilogy (2006-2012) BDRip-AVC от HELLYWOOD | Лицензия торрент скачать бесплатно


    • Комментарии (0):

      Информация

      Информация

        Посетители, находящиеся в группе Гости, не могут оставлять комментарии в данной новости.

        ↓ Меню



        ↓ Опрос

        А Вы добавили сайт в закладки?
        Да
        Не


        Top 10 за неделю (Фильмы)