.
Авторизация | Регистрация
Хочешь лучшие торренты? Добавь свой email!
Добавить
» » Богиня / Goddess (2013) HDRip от Youtracker | D | лицензия торрент скачать бесплатно




    Богиня / Goddess (2013) HDRip от Youtracker | D | лицензия торрент скачать бесплатно

    Опубликовал: Админ | Дата: 27-02-2015, 11:09 | Просмотров: 314

    Из домохозяек в звёзды



    Страна:Австралия
    Студия: The Film Company, Wildheart Films
    Жанр: мюзикл, мелодрама, комедия
    Год выпуска: 2013
    Продолжительность: 01:43:50

    Перевод: Профессиональный (дублированный)
    Субтитры: нет
    Оригинальная аудиодорожка: нет

    Режиссер: Марк Лампрелл / Mark Lamprell

    В ролях: Лора Мишель Келли, Ронан Китинг, Магда Шубански, Дастин Клер, Хьюго Джонстон-Барт, Тэмсин Кэрролл, Корин Грант, Пиа Миранда, Натали Трэн, Камерон Лион...

    Описание: Элсбет Диккенс — домохозяйка и мама двух чудесных близнецов. Её муж Джеймс работает в Гринпис и постоянно отсутствует дома, спасая то китов, то осьминогов. Чтобы между ними была какая то связь, Джеймс установил дома веб-камеру. Однажды Элсбет решила спеть перед ней песню, не зная, что трансляция идёт в интернет, и на следующий день проснулась знаменитой. Ей предложило контракт крупное рекламное агентство, и она уехала в столицу, оставив близнецов на няню. Столичная жизнь полна соблазнов, Элсбет ждёт мировой контракт. Что она выберет — славу и деньги или любовь мужа, которого никогда нет дома?



    Исходник: pfa-god.720p.mkv DVD5 R5
    Тип релиза: HDRip
    Контейнер: AVI

    Видео: 720x304 (2.35:1), 24.000 fps, XVID ~865 kbps avg, 0.165 bit/pixel
    Аудио: Русский 48 kHz, MP3, 2 ch, 128.00 kbps Constant
    MediaInfo

    Общее
    Полное имя : Boginya.2013.D.HDRip.745MB_Youtracker_by_avproh.avi
    Формат : AVI
    Формат/Информация : Audio Video Interleave
    Размер файла : 745 Мбайт
    Продолжительность : 1 ч. 43 м.
    Общий поток : 1003 Кбит/сек
    Программа кодирования : VirtualDubModRus 1.5.10.2 (build 2542/release)
    Библиотека кодирования : VirtualDubMod build 2542/release

    Видео
    Идентификатор : 0
    Формат : MPEG-4 Visual
    Профиль формата : Advanced Simple@L5
    Параметр BVOP формата : 1
    Параметр QPel формата : Нет
    Параметр GMC формата : Без точки перехода
    Параметр матрицы формата : Выборочная
    Идентификатор кодека : XVID
    Идентификатор кодека/Подсказка : XviD
    Продолжительность : 1 ч. 43 м.
    Битрейт : 865 Кбит/сек
    Ширина : 720 пикселей
    Высота : 304 пикселя
    Соотношение сторон : 2,35:1
    Частота кадров : 24,000 кадра/сек
    Цветовое пространство : YUV
    Субдискретизация насыщенности : 4:2:0
    Битовая глубина : 8 бит
    Тип развёртки : Прогрессивная
    Метод сжатия : С потерями
    Бит/(Пиксели*Кадры) : 0.165
    Размер потока : 643 Мбайт (86%)
    Библиотека кодирования : XviD 65

    Аудио
    Идентификатор : 1
    Формат : MPEG Audio
    Версия формата : Version 1
    Профиль формата : Layer 3
    Режим : Joint stereo
    Расширение режима : MS Stereo
    Идентификатор кодека : 55
    Идентификатор кодека/Подсказка : MP3
    Продолжительность : 1 ч. 43 м.
    Вид битрейта : Постоянный
    Битрейт : 128 Кбит/сек
    Каналы : 2 канала
    Частота : 48,0 КГц
    Метод сжатия : С потерями
    Размер потока : 95,1 Мбайт (13%)
    Выравнивание : Соединение по промежуткам
    Продолжительность промежутка : 42 мс. (1,00 видеокадр)
    Время предзагрузки промежутка : 504 мс.

    Скриншоты



    Залил: avproh
    Размер: 744.77 MB (780943360 Bytes)
    загрузка...
    Рейтинг →
     (голосов: 1, оценка 3/5, голосовать можно 1 раз )

    Другие торренты по теме:

  • Олдос Хаксли - Гений и богиня (2013) MP3
  • Богиня / Vengamamba (2009) SATRip от Files-x | P
  • Богиня / Goddess (2013) HDRip-AVC от Youtracker | D | лицензия
  • Богиня / Goddess (2013) DVD5 R5 от Youtracker | D | лицензия
  • Богиня / Goddess (2013) BDRip 720p от Youtracker | D | лицензия
  • Богиня / Goddess (2013) BDRip 1080p от Youtracker | D | лицензия
  • Богиня / Goddess (2013) НDRip от Scarabey | D
  • Богиня / Goddess (2012) HDRip от -=HD-NET=- | КПК


    • Комментарии (0):

      Информация

      Информация

        Посетители, находящиеся в группе Гости, не могут оставлять комментарии в данной новости.

        ↓ Меню



        ↓ Опрос

        А Вы добавили сайт в закладки?
        Да
        Не


        Top 10 за месяц (Фильмы)