.
Авторизация | Регистрация
» » Незнакомец внутри / The Stranger Within (2013) DVDRip от Youtracker | P | лицензия торрент скачать бесплатно




    Незнакомец внутри / The Stranger Within (2013) DVDRip от Youtracker | P | лицензия торрент скачать бесплатно

    Опубликовал: Админ | Дата: 27-02-2015, 11:09 | Просмотров: 282



    Страна: Дания
    Студия: Drama Deluxe, Duckling A/S
    Жанр: триллер
    Год выпуска: 2013
    Продолжительность: 01:26:50

    Перевод: Профессиональный (многоголосый)
    Субтитры: нет
    Оригинальная аудиодорожка: нет

    Режиссер: Adam Neutzsky-Wulff

    В ролях: Эстелла Уоррен, Уильям Болдуин, Катя Винтер, Сара Батлер, Джеффри Пирс, Ким Бодния, Клер Росс-Браун, Вивьенн МакКи, Оле Дюпон, Roohullah Rohein Hasani...

    Описание: Известная актриса Эмили Мур и ее муж психиатр по имени Роберт, решают отдохнуть на удаленном средиземноморском острове. Но в первую же ночь в их дом приходит молодая женщина в истерике от смерти ее парня…



    Исходник: DVD9 R5
    Тип релиза: DVDRip
    Контейнер: AVI

    Видео: 720x304 (2.35:1), 25.000 fps, XVID ~1068 kbps avg, 0.195 bit/pixel
    Аудио: Русский 48 kHz, МР3, 2 ch, 128.00 kbps Constant
    MediaInfo

    Общее
    Полное имя : Neznakomets.vnutri.2013.D.DVDRip.745MB_Youtracker_by_avproh.avi
    Формат : AVI
    Формат/Информация : Audio Video Interleave
    Размер файла : 749 Мбайт
    Продолжительность : 1 ч. 26 м.
    Общий поток : 1206 Кбит/сек
    Программа кодирования : VirtualDubModRus 1.5.10.2 (build 2542/release)
    Библиотека кодирования : VirtualDubMod build 2542/release

    Видео
    Идентификатор : 0
    Формат : MPEG-4 Visual
    Профиль формата : Advanced Simple@L5
    Параметр BVOP формата : 1
    Параметр QPel формата : Нет
    Параметр GMC формата : Без точки перехода
    Параметр матрицы формата : Выборочная
    Идентификатор кодека : XVID
    Идентификатор кодека/Подсказка : XviD
    Продолжительность : 1 ч. 26 м.
    Битрейт : 1068 Кбит/сек
    Ширина : 720 пикселей
    Высота : 304 пикселя
    Соотношение сторон : 2,35:1
    Частота кадров : 25,000 кадров/сек
    Цветовое пространство : YUV
    Субдискретизация насыщенности : 4:2:0
    Битовая глубина : 8 бит
    Тип развёртки : Прогрессивная
    Метод сжатия : С потерями
    Бит/(Пиксели*Кадры) : 0.195
    Размер потока : 663 Мбайт (89%)
    Библиотека кодирования : XviD 65

    Аудио
    Идентификатор : 1
    Формат : MPEG Audio
    Версия формата : Version 1
    Профиль формата : Layer 3
    Режим : Joint stereo
    Идентификатор кодека : 55
    Идентификатор кодека/Подсказка : MP3
    Продолжительность : 1 ч. 26 м.
    Вид битрейта : Постоянный
    Битрейт : 128 Кбит/сек
    Каналы : 2 канала
    Частота : 48,0 КГц
    Метод сжатия : С потерями
    Размер потока : 79,5 Мбайт (11%)
    Выравнивание : Соединение по промежуткам
    Продолжительность промежутка : 40 мс. (1,00 видеокадр)
    Время предзагрузки промежутка : 504 мс.

    Скриншоты



    Залил: avproh
    Размер: 748.74 MB (785108992 Bytes)
    загрузка...
    Рейтинг →
     (голосов: 1, оценка 3/5, голосовать можно 1 раз )

    Другие торренты по теме:

  • Незнакомец внутри / The Stranger Within (2013) DVDRip от Youtracker | D | лицензия торрент скачать бесплатно
  • Незнакомец внутри / The Stranger Within (2013) DVDRip-AVC от Youtracker | P | лицензия торрент скачать бесплатно
  • Незнакомец внутри / The Stranger Within (2013) DVD9 R5 от Youtracker | P | лицензия торрент скачать бесплатно
  • Незнакомец внутри / The Stranger Within (2013) DVD5 от Youtracker | P | сжатый торрент скачать бесплатно
  • Незнакомец внутри / The Stranger Within (2013) WEB-DL 720p | P | iTunes Russia торрент скачать бесплатно
  • Незнакомец внутри / The Stranger Within (2013) WEB-DLRip от Scarabey | P | iTunes Russia торрент скачать бесплатно
  • Незнакомец внутри / The Stranger Within (2013) WEB-DLRip от Scarabey | P | iTunes Russia скачать торрент бесплатно


    • Комментарии (0):

      Информация

      Информация

        Посетители, находящиеся в группе Гости, не могут оставлять комментарии в данной новости.

        ↓ Меню



        ↓ Опрос

        А Вы добавили сайт в закладки?
        Да
        Не


        Top 10 за неделю (Фильмы)