.
Авторизация | Регистрация
Хочешь лучшие торренты? Добавь свой email!
Добавить
» » Война миров Z / World War Z (2013) BDRip 720p | UNRATED | Звук с TS торрент скачать бесплатно




    Война миров Z / World War Z (2013) BDRip 720p | UNRATED | Звук с TS торрент скачать бесплатно

    Опубликовал: Админ | Дата: 27-02-2015, 11:09 | Просмотров: 288





    Информация о фильме
    Название: Война миров Z
    Оригинальное название: World War Z
    Год выхода: 2013
    Жанр: ужасы, фантастика, боевик, триллер, драма
    Режиссер: Марк Форстер
    В ролях: Брэд Питт, Мирей Инос, Джеймс Бэдж Дэйл, Мэттью Фокс, Даниэлла Кертеш, Луди Бокен, Фана Мокоэна, Дэвид Морc, Элайес Габел, Питер Капальди

    О фильме: Сотрудник ООН Гари Лейн наперегонки со временем пытается остановить заражение, способное полностью истребить человечество.



    Выпущено: США, Мальта
    Продолжительность: 02:03:03
    Озвучивание: Дублированное звук с TS

    Примечание: UNRATED версия. Отсутствует около 10 минут перевода.

    Файл
    Качество: BDRip 720p
    Формат: MKV
    Видео: 4836 kb/s, 1280x536
    Аудио: Russian: MP3, 128 kb/s (2 ch) / English: DTS, 1509 kb/s (6 ch)

    Семпл

    MI

    Format : Matroska
    Format version : Version 4 / Version 2
    File size : 5.57 GiB
    Duration : 2h 3mn
    Overall bit rate : 6 475 Kbps
    Encoded date : UTC 2013-09-02 18:42:38
    Writing application : mkvmerge v6.2.0 (;Promised Land;) built on Apr 28 2013 12:22:01
    Writing library : libebml v1.3.0 libmatroska v1.4.0

    Video
    ID : 1
    Format : AVC
    Format/Info : Advanced Video Codec
    Format profile : High@L4.1
    Format settings, CABAC : Yes
    Format settings, ReFrames : 12 frames
    Codec ID : V_MPEG4/ISO/AVC
    Duration : 2h 3mn
    Bit rate : 4 836 Kbps
    Width : 1 280 pixels
    Height : 536 pixels
    Display aspect ratio : 2.40:1
    Frame rate : 23.976 fps
    Color space : YUV
    Chroma subsampling : 4:2:0
    Bit depth : 8 bits
    Scan type : Progressive
    Bits/(Pixel*Frame) : 0.294
    Stream size : 4.05 GiB (73%)
    Writing library : x264 core 129 r2245 704 36 8e61944 tMod MixAQ 8-bit@4:2:0 X86_64
    Encoding settings : cabac=1 / ref=12 / deblock=1:-3:-3 / analyse=0x3:0x133 / me=umh / subme=11 / psy=1 / fade_compensate=0.00 / psy_rd=1.05:0.05 / mixed_ref=1 / me_range=32 / chroma_me=1 / trellis=2 / 8x8dct=1 / cqm=0 / deadzone=21,11 / fast_pskip=0 / chroma_qp_offset=-3 / threads=18 / lookahead_threads=3 / sliced_threads=0 / nr=0 / decimate=1 / interlaced=0 / bluray_compat=0 / constrained_intra=0 / fgo=0 / bframes=8 / b_pyramid=2 / b_adapt=2 / b_bias=0 / direct=3 / weightb=1 / open_gop=0 / weightp=2 / keyint=250 / keyint_min=23 / scenecut=40 / intra_refresh=0 / rc_lookahead=50 / rc=2pass / mbtree=1 / bitrate=4836 / ratetol=1.0 / qcomp=0.70 / qpmin=0 / qpmax=69 / qpstep=4 / cplxblur=20.0 / qblur=0.5 / ip_ratio=1.40 / aq=3 / aq-strength=0.90 / aq-sensitivity=10.00 / aq-ifactor=1.00 / aq-pfactor=1.00 / aq-bfactor=1.00 / aq2=0
    Language : English
    Default : Yes
    Forced : No

    Audio #1
    ID : 2
    Format : MPEG Audio
    Format version : Version 1
    Format profile : Layer 3
    Mode : Joint stereo
    Codec ID : A_MPEG/L3
    Codec ID/Hint : MP3
    Duration : 2h 3mn
    Bit rate mode : Constant
    Bit rate : 128 Kbps
    Channel(s) : 2 channels
    Sampling rate : 48.0 KHz
    Compression mode : Lossy
    Stream size : 113 MiB (2%)
    Language : Russian
    Default : Yes
    Forced : No

    Audio #2
    ID : 3
    Format : DTS
    Format/Info : Digital Theater Systems
    Codec ID : A_DTS
    Duration : 2h 3mn
    Bit rate mode : Constant
    Bit rate : 1 510 Kbps
    Channel(s) : 6 channels
    Channel positions : Front: L C R, Side: L R, LFE
    Sampling rate : 48.0 KHz
    Bit depth : 24 bits
    Compression mode : Lossy
    Stream size : 1.30 GiB (23%)
    Language : English
    Default : No
    Forced : No

    Menu
    00:00:00.000 : en:00:00:00.000
    00:05:05.179 : en:00:05:05.179
    00:13:53.999 : en:00:13:53.999
    00:22:43.195 : en:00:22:43.195
    00:29:46.034 : en:00:29:46.034
    00:35:21.494 : en:00:35:21.494
    00:42:23.457 : en:00:42:23.457
    00:52:37.946 : en:00:52:37.946
    00:58:53.821 : en:00:58:53.821
    01:07:18.868 : en:01:07:18.868
    01:15:11.757 : en:01:15:11.757
    01:24:02.037 : en:01:24:02.037
    01:29:08.801 : en:01:29:08.801
    01:34:50.518 : en:01:34:50.518
    01:43:45.469 : en:01:43:45.469
    01:52:17.981 : en:01:52:17.981
    01:55:51.653 : en:01:55:51.653
    Скриншоты

    Размер: 5.57 GB (5975872874 Bytes)
    загрузка...
    Рейтинг →
     (голосов: 1, оценка 5/5, голосовать можно 1 раз )

    Другие торренты по теме:

  • Война миров / War of the Worlds (2005) BDRip 720p от NoLimits-Team
  • Война миров Z / World War Z (2013) HD 1080p | Трейлер
  • Уэллс Герберт Джордж - Война миров (2012) MP3
  • OST. Война Миров Z / World War Z (2013) MP3
  • Бессмертные: Война миров / Immortel (ad vitam) (2004) BDRip-AVC
  • Война миров Z / World War Z (2013) HDRip | UNRATED | Звук с TS
  • Война миров Z / World War Z (2013) HDRip от Scarabey | Расширенная версия | Andi
  • Война миров Z / World War Z (2013) BDRip 720p | L1 | UNRATED


    • Комментарии (0):

      Информация

      Информация

        Посетители, находящиеся в группе Гости, не могут оставлять комментарии в данной новости.

        ↓ Меню



        ↓ Опрос

        А Вы добавили сайт в закладки?
        Да
        Не


        Top 10 за месяц (Фильмы)