.
Авторизация | Регистрация
» » Прекрасные создания / Beautiful Creatures (2013) HDRip от BitTracker | Чистый звук торрент скачать бесплатно




    Прекрасные создания / Beautiful Creatures (2013) HDRip от BitTracker | Чистый звук торрент скачать бесплатно

    Опубликовал: Админ | Дата: 27-02-2015, 11:09 | Просмотров: 348



    Информация о фильме
    Название: Прекрасные создания
    Оригинальное название: Beautiful Creatures
    Год выхода: 2013
    Жанр: фэнтези, драма, мелодрама
    Режиссер: Ричард ЛаГравенес / Richard LaGravenese
    В ролях: Олден Эйренрайк, Элис Энглерт, Джереми Айронс, Виола Дэвис, Эмми Россам, Томас Манн, Эмма Томпсон, Айлин Эткинс, Марго Мартиндейл, Зоя Дойч, Тиффани Бун, Рэйчел Броснахэн

    О фильме:
    Лена Дюкейн отличается от всех, кого когда-либо видел маленький южный город Гатлин, она борется с собой, пытаясь усмирить свою силу и проклятие, веками преследовавшее ее семью. Но даже в разросшихся садах, в мрачных болотах и на разрушенных могильниках позабытого Юга секрет не будет жить вечно.
    Итана Уэйта, считающего дни до своего бегства из Гатлина, преследуют сны о прекрасной девушке, которую он никогда не встречал. Когда Лена приезжает жить в дом на самой старой и самой жуткой из всех плантаций города, Итан безоговорочно влюбляется в нее и целенаправленно старается раскрыть секрет их удивительной связи.



    Страна: США
    Студия: Warner Bros. Entertainment
    Продолжительность: 02:03:44
    Перевод: Дублированное Чистый звук

    Файл
    Кодек: XviD
    Качество: HDRip (Исх. BDRip 720p)
    Видео: 688x288 (2.39:1), 23.976 fps, XviD build 50 ~706 kbps avg, 0.15 bit/pixel
    Звук: 48 kHz, MPEG Layer 3, 2 ch, ~128.00 kbps avg
    Субтитры: нет

    Семпл

    MediaInfo

    Общее
    Полное имя : S:ФильмыПрекрасные создания. 2013. HDRip (AleksSin).avi
    Формат : AVI
    Формат/Информация : Audio Video Interleave
    Размер файла : 746 Мбайт
    Продолжительность : 2 ч. 3 м.
    Общий поток : 843 Кбит/сек
    Программа кодирования : VirtualDubMod 1.5.10.3 | www.virtualdub-fr.org || (build 2550/release)
    Библиотека кодирования : VirtualDubMod build 2550/release

    Видео
    Идентификатор : 0
    Формат : MPEG-4 Visual
    Профиль формата : Advanced Simple@L5
    Параметр BVOP формата : 2
    Параметр QPel формата : Нет
    Параметр GMC формата : Без точки перехода
    Параметр матрицы формата : Default (H.263)
    Идентификатор кодека : XVID
    Идентификатор кодека/Подсказка : XviD
    Продолжительность : 2 ч. 3 м.
    Битрейт : 706 Кбит/сек
    Ширина : 688 пикс.
    Высота : 288 пикс.
    Соотношение сторон : 2,40:1
    Частота кадров : 23,976 кадр/сек
    Цветовое пространство : YUV
    Подвыборка цветности : 4:2:0
    Битовая глубина : 8 бит
    Тип развёртки : Прогрессивная
    Метод сжатия : С потерями
    Бит/(Пиксели*Кадры) : 0.149
    Размер потока : 625 Мбайт (84%)
    Библиотека кодирования : XviD 1.2.1 (UTC 2008-12-04)

    Аудио
    Идентификатор : 1
    Формат : MPEG Audio
    Версия формата : Version 1
    Профиль формата : Layer 3
    Идентификатор кодека : 55
    Идентификатор кодека/Подсказка : MP3
    Продолжительность : 2 ч. 3 м.
    Вид битрейта : Постоянный
    Битрейт : 128 Кбит/сек
    Каналы : 2 канала
    Частота : 48,0 КГц
    Метод сжатия : С потерями
    Размер потока : 113 Мбайт (15%)
    Выравнивание : Соединение по промежуткам
    Продолжительность промежутка : 42 мс. (1,00 видеокадр)
    Время предзагрузки промежутка : 504 ms
    Библиотека кодирования : LAME3.99r
    Залил: AleksSin
    Размер: 746.18 MB (782426112 Bytes)

    загрузка...
    Рейтинг →
     (голосов: 1, оценка 4/5, голосовать можно 1 раз )

    Другие торренты по теме:

  • Прекрасные создания / Beautiful Creatures (2013) TS торрент скачать бесплатно
  • Прекрасные создания / Beautiful Creatures (2013) BDRip 720p от INTERCINEMA | Чистый звук торрент скачать бесплатно
  • Прекрасные создания / Beautiful Creatures (2013) BDRip-AVC от HELLYWOOD | чистый звук торрент скачать бесплатно
  • Прекрасные создания / Beautiful Creatures (2013) HDRip от INTERCINEMA | Чистый звук торрент скачать бесплатно
  • Прекрасные создания / Beautiful Creatures (2013) BDRip 1080p | Чистый звук торрент скачать бесплатно
  • Прекрасные создания / Beautiful Creatures (2013) HDRip-AVC от Youtracker | Чистый Звук торрент скачать бесплатно
  • Прекрасные создания / Beautiful Creatures (2013) HDRip от Scarabey | Чистый звук торрент скачать бесплатно
  • Прекрасные создания / Beautiful Creatures (2013) BDRip 720p | Лицензия скачать через торрент бесплатно


    • Комментарии (0):

      Информация

      Информация

        Посетители, находящиеся в группе Гости, не могут оставлять комментарии в данной новости.

        ↓ Меню



        ↓ Опрос

        А Вы добавили сайт в закладки?
        Да
        Не


        Top 10 за неделю (Фильмы)