.
Авторизация | Регистрация
» » Перекресток / Intersections (2013) HDRip от BitTracker | L1 торрент скачать бесплатно




    Перекресток / Intersections (2013) HDRip от BitTracker | L1 торрент скачать бесплатно

    Опубликовал: Админ | Дата: 27-02-2015, 11:09 | Просмотров: 379



    Информация о фильме
    Название: Перекресток
    Оригинальное название: Intersections
    Год выхода: 2013
    Жанр: триллер, мелодрама
    Режиссер: Дэвид Маркони / David Marconi
    В ролях: Фрэнк Грилло, Джейми Александер, Рошди Зем, Мари-Жозе Кроз, Мусса Мааскри, Чарли Бьюли, Аффиф Бен Бадра, Карлос Леаль, Габриэлла Райт, Абделила Надиф

    О фильме:
    В центре сюжета молодая пара. Однако их брак не так уж безоблачен. У женщины есть любовник на стороне, и с его помощью она разрабатывает план убийства мужа. Но все идет наперекосяк, когда муж и его соперник оказываются вместе на марокканской пустынной дороге после автомобильной катастрофы.



    Страна: Франция
    Студия: EuropaCorp, Grive Productions, Canal
    Продолжительность: 01:41:25
    Перевод: Любительское (одноголосое) Хихикающий доктор

    Файл
    Кодек: XviD
    Качество: HDRip (Исх. BDRip 720p)
    Видео: 656x272 (2.41:1), 24.000 fps, XviD build 50 ~890 kbps avg, 0.21 bit/pixel
    Звук: 48 kHz, MPEG Layer 3, 2 ch, ~128.00 kbps avg
    Субтитры: нет

    Семпл

    MediaInfo

    Общее
    Полное имя : S:ФильмыПерекресток. 2013. HDRip (AleksSin).avi
    Формат : AVI
    Формат/Информация : Audio Video Interleave
    Размер файла : 745 Мбайт
    Продолжительность : 1 ч. 41 м.
    Общий поток : 1027 Кбит/сек
    Программа кодирования : VirtualDubMod 1.5.10.3 | www.virtualdub-fr.org || (build 2550/release)
    Библиотека кодирования : VirtualDubMod build 2550/release

    Видео
    Идентификатор : 0
    Формат : MPEG-4 Visual
    Профиль формата : Advanced Simple@L5
    Параметр BVOP формата : 2
    Параметр QPel формата : Нет
    Параметр GMC формата : Без точки перехода
    Параметр матрицы формата : Default (H.263)
    Идентификатор кодека : XVID
    Идентификатор кодека/Подсказка : XviD
    Продолжительность : 1 ч. 41 м.
    Битрейт : 890 Кбит/сек
    Ширина : 656 пикс.
    Высота : 272 пикс.
    Соотношение сторон : 2,40:1
    Частота кадров : 24,000 кадр/сек
    Цветовое пространство : YUV
    Подвыборка цветности : 4:2:0
    Битовая глубина : 8 бит
    Тип развёртки : Прогрессивная
    Метод сжатия : С потерями
    Бит/(Пиксели*Кадры) : 0.208
    Размер потока : 645 Мбайт (87%)
    Библиотека кодирования : XviD 1.2.1 (UTC 2008-12-04)

    Аудио
    Идентификатор : 1
    Формат : MPEG Audio
    Версия формата : Version 1
    Профиль формата : Layer 3
    Идентификатор кодека : 55
    Идентификатор кодека/Подсказка : MP3
    Продолжительность : 1 ч. 41 м.
    Вид битрейта : Постоянный
    Битрейт : 128 Кбит/сек
    Каналы : 2 канала
    Частота : 48,0 КГц
    Метод сжатия : С потерями
    Размер потока : 92,9 Мбайт (12%)
    Выравнивание : Соединение по промежуткам
    Продолжительность промежутка : 42 мс. (1,00 видеокадр)
    Время предзагрузки промежутка : 504 ms
    Библиотека кодирования : LAME3.99r
    Залил: AleksSin
    Размер: 745.03 MB (781217792 Bytes)

    загрузка...
    Рейтинг →
     (голосов: 1, оценка 3/5, голосовать можно 1 раз )

    Другие торренты по теме:

  • Павел Кобылянский - Перекресток миров. Поиск выхода (2013) FB2 торрент скачать бесплатно
  • Перекресток смерти / True Justice (2012) DVDRip | D торрент скачать бесплатно
  • Перекресток / Intersections (2013) HDRip | L1 торрент скачать бесплатно
  • Перекресток в джунглях / Jungle Junction (2009-2011) SATRip от New-Team | P скачать через торрент бесплатно
  • Перекресток / Intersections (2013) BDRip 720p | P | Точка Zрения скачать через торрент бесплатно
  • Перекресток смерти / Настоящее правосудие: Расплата / True Justice: Payback (2011) BDRip 1080p by msltel | D торрент скачать бесплатно
  • Перекресток / Collision / Intersections (2013) BDRip 720p от CINEMANIA | L, L1 торрент скачать бесплатно
  • Перекресток / Collision / Intersections (2013) BDRip 1080p от CINEMANIA | L, L1 торрент скачать бесплатно


    • Комментарии (0):

      Информация

      Информация

        Посетители, находящиеся в группе Гости, не могут оставлять комментарии в данной новости.

        ↓ Меню



        ↓ Опрос

        А Вы добавили сайт в закладки?
        Да
        Не


        Top 10 за неделю (Фильмы)