.
Авторизация | Регистрация
» » Прекрасные создания / Beautiful Creatures (2013) BDRip 1080p | Чистый звук торрент скачать бесплатно




    Прекрасные создания / Beautiful Creatures (2013) BDRip 1080p | Чистый звук торрент скачать бесплатно

    Опубликовал: Админ | Дата: 27-02-2015, 11:09 | Просмотров: 313



    Информация о фильме
    Название: Прекрасные создания
    Оригинальное название: Beautiful Creatures
    Год выпуска: 2013
    Жанр: Фэнтези, драма, мелодрама
    Выпущено: США, Warner Bros. Entertainment
    Режиссер: Ричард ЛаГравенес
    В ролях: Джереми Айронс, Эмми Россум, Эмма Томпсон, Виола Дэвис, Томас Манн, Кайл Галлнер, Олден Эйренрайк, Джастин Уачсбергер, Элис Энглерт, Зоя Дойч

    О фильме: Лена Дюкейн отличается от всех, кого когда-либо видел маленький южный город Гатлин, она борется с собой, пытаясь усмирить свою силу и проклятие, веками преследовавшее ее семью. Но даже в разросшихся садах, в мрачных болотах и на разрушенных могильниках позабытого Юга секрет не будет жить вечно.



    Файл
    Качество: BDRip (1080p)
    Видео: MPEG-4 AVC, 11.7 Мбит/с, 1920x800
    Аудио: Русский (MP3, 2 ch, 192 Кбит/с), английский (DTS, 6 ch, 1510 Кбит/с)
    Размер: 11.8 ГБ
    Продолжительность: 02:03:44
    Перевод: Дублированный чистый звук
    Субтитры: Английские

    Семпл
    MI
    Общее
    Уникальный идентификатор : 209091493128298034516171737487966766477 (0x9D4D8E88B0F4BEB7A3BC88877DB0858D)
    Полное имя : C:DownloadsVideoPrekrasnye.sozdanija.2013.D.BDRip.1080.mkv
    Формат : Matroska
    Версия формата : Version 2
    Размер файла : 11,8 Гбайт
    Продолжительность : 2 ч. 3 м.
    Общий поток : 13,7 Мбит/сек
    Дата кодирования : UTC 2013-09-01 19:57:51
    Программа кодирования : mkvmerge v6.3.0 (;You can;t stop me!;) built on Jun 28 2013 20:09:41
    Библиотека кодирования : libebml v1.3.0 libmatroska v1.4.0

    Видео
    Идентификатор : 1
    Формат : AVC
    Формат/Информация : Advanced Video Codec
    Профиль формата : High@L4.1
    Параметр CABAC формата : Да
    Параметр ReFrames формата : 5 кадров
    Идентификатор кодека : V_MPEG4/ISO/AVC
    Продолжительность : 2 ч. 3 м.
    Битрейт : 11,7 Мбит/сек
    Ширина : 1920 пикселей
    Высота : 800 пикселей
    Соотношение сторон : 2,40:1
    Режим частоты кадров : Постоянный
    Частота кадров : 23,976 кадра/сек
    Цветовое пространство : YUV
    Субдискретизация насыщенности : 4:2:0
    Битовая глубина : 8 бит
    Тип развёртки : Прогрессивная
    Бит/(Пиксели*Кадры) : 0.317
    Размер потока : 10,1 Гбайт (86%)
    Библиотека кодирования : x264 core 130 r2274 704 40 24c804d tMod MixAQ 8-bit@4:2:0 X86_64
    Настройки программы : cabac=1 / ref=5 / deblock=1:-3:-3 / analyse=0x3:0x113 / me=umh / subme=11 / psy=1 / fade_compensate=0.00 / psy_rd=1.05:0.00 / mixed_ref=1 / me_range=48 / chroma_me=1 / trellis=2 / 8x8dct=1 / cqm=0 / deadzone=21,11 / fast_pskip=0 / chroma_qp_offset=-2 / threads=36 / lookahead_threads=6 / sliced_threads=0 / nr=0 / decimate=0 / interlaced=0 / bluray_compat=0 / constrained_intra=0 / fgo=0 / bframes=8 / b_pyramid=2 / b_adapt=2 / b_bias=0 / direct=3 / weightb=1 / open_gop=0 / weightp=2 / keyint=240 / keyint_min=24 / scenecut=40 / intra_refresh=0 / rc=crf / mbtree=0 / crf=17.8000 / qcomp=0.72 / qpmin=0 / qpmax=69 / qpstep=4 / ip_ratio=1.25 / pb_ratio=1.20 / aq=4:0.80 / aq-sensitivity=10.00 / aq-ifactor=1.00 / aq-pfactor=1.00 / aq-bfactor=1.00 / aq2=0
    Язык : English
    Default : Да
    Forced : Нет

    Аудио #1
    Идентификатор : 2
    Формат : MPEG Audio
    Версия формата : Version 1
    Профиль формата : Layer 3
    Режим : Joint stereo
    Идентификатор кодека : A_MPEG/L3
    Идентификатор кодека/Подсказка : MP3
    Продолжительность : 2 ч. 3 м.
    Вид битрейта : Постоянный
    Битрейт : 192 Кбит/сек
    Каналы : 2 канала
    Частота : 48,0 КГц
    Метод сжатия : С потерями
    Размер потока : 170 Мбайт (1%)
    Язык : Russian
    Default : Да
    Forced : Нет

    Аудио #2
    Идентификатор : 3
    Формат : DTS
    Формат/Информация : Digital Theater Systems
    Режим : 16
    Параметр Endianness формата : Big
    Идентификатор кодека : A_DTS
    Продолжительность : 2 ч. 3 м.
    Вид битрейта : Постоянный
    Битрейт : 1509 Кбит/сек
    Каналы : 6 каналов
    Расположение каналов : Front: L C R, Side: L R, LFE
    Частота : 48,0 КГц
    Битовая глубина : 24 бит
    Метод сжатия : С потерями
    Размер потока : 1,30 Гбайт (11%)
    Язык : English
    Default : Нет
    Forced : Нет

    Текст
    Идентификатор : 4
    Формат : PGS
    Идентификатор кодека : S_HDMV/PGS
    Идентификатор кодека/Информация : The same subtitle format used on BDs/HD-DVDs
    Язык : English
    Default : Нет
    Forced : Нет

    Скриншоты

    Размер: 11.80 GB (12671283642 Bytes)
    загрузка...
    Рейтинг →
     (голосов: 1, оценка 3/5, голосовать можно 1 раз )

    Другие торренты по теме:

  • Прекрасные создания / Beautiful Creatures (2013) TS торрент скачать бесплатно
  • Прекрасные создания / Beautiful Creatures (2013) BDRip 720p от INTERCINEMA | Чистый звук торрент скачать бесплатно
  • Прекрасные создания / Beautiful Creatures (2013) BDRip-AVC от HELLYWOOD | чистый звук торрент скачать бесплатно
  • Прекрасные создания / Beautiful Creatures (2013) HDRip от INTERCINEMA | Чистый звук торрент скачать бесплатно
  • Прекрасные создания / Beautiful Creatures (2013) HDRip от BitTracker | Чистый звук торрент скачать бесплатно
  • Прекрасные создания / Beautiful Creatures (2013) HDRip-AVC от Youtracker | Чистый Звук торрент скачать бесплатно
  • Прекрасные создания / Beautiful Creatures (2013) HDRip от Scarabey | Чистый звук торрент скачать бесплатно
  • Прекрасные создания / Beautiful Creatures (2013) BDRip 720p | Лицензия скачать через торрент бесплатно


    • Комментарии (0):

      Информация

      Информация

        Посетители, находящиеся в группе Гости, не могут оставлять комментарии в данной новости.

        ↓ Меню



        ↓ Опрос

        А Вы добавили сайт в закладки?
        Да
        Не


        Top 10 за неделю (Фильмы)