.
Авторизация | Регистрация
» » Пересекающиеся линии / Crossing Lines (2013) WEB-DLRip | ViruseProject торрент скачать бесплатно




    Пересекающиеся линии / Crossing Lines (2013) WEB-DLRip | ViruseProject торрент скачать бесплатно

    Опубликовал: Админ | Дата: 27-02-2015, 11:09 | Просмотров: 364

    Пересекающиеся линии / Crossing Lines

    Год выпуска: 2013
    Страна: Франция, Германия, США
    Жанр: боевик, драма, криминал
    Продолжительность: 00:42:00

    Перевод: Любительский (многоголосый закадровый) ViruseProject
    Русские субтитры: нет
    Режиссёр: Дэниэл Персивал, Эрик Валетт, Энди Уилсон

    В ролях: Уильям Фихтнер (Побег, Американский папаша, Черный ястреб, Контакт и др.), Дональд Сазерленд (Столпы Земли, Гордость и предубеждение, Обратная тяга и др.), Марк Лавуан, Ричард Флуд, Габриэлла Пессион, Том Влашиха (Игра престолов, Пуаро и др.), Мун Дайлли, Эльза Молльен, Клаудия Васекова, Женевьев О’Рейли

    Описание: С формированием Европейского Союза для упрощения торговли и путешествий были открыты границы. Однако это имело и другое последствие: взрыв международной преступности. При таких условиях преступники могут сбегать в любую страну и спрятаться в любом городе. В мире, где самые опасные персоны могут пересекать столько границ, элитное спецподразделение, каждый член которого избирался исходя из его особенных навыков, должно провести под этим черту.


    Релиз:
    Над релизом трудились:
    Озвучка:
    *Марина Видякина
    *Алла Блаер

    *Дмитрий Иванов
    *Алекс Викке
    *Игорь Головин
    *Дмитрий Кравченко

    Перевод:Нотабиноид
    Редакция перевода:viruse (Виталий Емельянов)
    Монтаж, сведение звука, видео подготовил:viruse (Виталий Емельянов)

    Ссылка на предыдущие и альтернативные раздачи

    смотреть ТРЕЙЛЕР к сериалу на youtube
    смотреть СЕМПЛ озвучки к сериалу на youtube
    скачать СЕМПЛ с multi-up

    Качество: WEB-DLRip
    Формат: AVI
    Видео кодек: XviD
    Аудио кодек: MP3
    Видео: 720x400 (1.80:1), 23.975 fps, XviD build 50 ~1506 kbps avg, 0.22 bit/pixel
    Аудио: 48 kHz, MPEG Layer 3, 2 ch, ~192.00 kbps avg
    MediaInfo

    X:ОЗВУЧКАСЕРИАЛЫCrossing.Lines.S01.ViruseProjectCrossing.Lines.S01.ViruseProjectCrossing.Lines.S01E01.ViruseProject.avi
    General
    Complete name : X:ОЗВУЧКАСЕРИАЛЫCrossing.Lines.S01.ViruseProjectCrossing.Lines.S01.ViruseProjectCrossing.Lines.S01E01.ViruseProject.avi
    Format : AVI
    Format/Info : Audio Video Interleave
    File size : 521 MiB
    Duration : 42mn 39s
    Overall bit rate : 1 708 Kbps
    Writing application : VirtualDubMod 1.5.10.2 (build 2540/release)
    Writing library : VirtualDubMod build 2540/release
    Video #0
    ID : 0
    Format : MPEG-4 Visual
    Format profile : Advanced Simple@L5
    Format settings, BVOP : 1
    Format settings, QPel : No
    Format settings, GMC : No warppoints
    Format settings, Matrix : Default (MPEG)
    Codec ID : XVID
    Codec ID/Hint : XviD
    Duration : 42mn 39s
    Bit rate : 1 507 Kbps
    Width : 720 pixels
    Height : 400 pixels
    Display aspect ratio : 16:9
    Frame rate : 23.976 fps
    Color space : YUV
    Chroma subsampling : 4:2:0
    Bit depth : 8 bits
    Scan type : Progressive
    Compression mode : Lossy
    Bits/(Pixel*Frame) : 0.218
    Stream size : 460 MiB (88%)
    Writing library : XviD 1.2.1 (UTC 2008-12-04)
    Audio #1
    ID : 1
    Format : MPEG Audio
    Format version : Version 1
    Format profile : Layer 3
    Codec ID : 55
    Codec ID/Hint : MP3
    Duration : 42mn 39s
    Bit rate mode : Constant
    Bit rate : 192 Kbps
    Channel(s) : 2 channels
    Sampling rate : 48.0 KHz
    Compression mode : Lossy
    Stream size : 58.6 MiB (11%)
    Alignment : Split accross interleaves
    Interleave, duration : 42 ms (1.00 video frame)
    Interleave, preload duration : 500 ms

    Скриншоты



    Внимание! Раздача ведётся путём добавления новых серий.

    Внимание! Раздача ведётся путём добавления новых серий; при каждом добавлении создётся новый торрент. Чтобы начать докачку новой серии, пользователям необходимо сделать следующее:

    Остановить скачивание.
    Удалить старый торрент у себя из клиента (старые серии удалять не надо).
    Скачать новый торрент и запустить его у себя в клиенте вместо старого, при этом указать клиенту путь в старую папку куда и должно происходить скачивание новых серий.
    size=11Ваш клиент при этом должен произвести хеширование (проверку) старой папки (если не производит сам - помогите ему сделать это), и будет докачивать только те серии которых у вас ещё нет. Старые серии при этом не удаляются, а продолжают раздаваться!
    Eсли вы уже удалили старые серии, то предотвратить повторную закачку старых серий можно, отжав галочку в соответсвующих местах при запуске нового торрента. По возможности, желательно не удалять старые серии как можно дольше чтобы релизёр не столько продолжал раздавать старые серии, а смог сконцентрироваться на новых./sizesize=22font=Monotype CorsivaКак закачать отдельный файл из торрента или докачать ранее пропущенные файлы торрента!/font/size

    Размер: 4.07 GB (4371423232 Bytes)
    загрузка...
    Рейтинг →
     (голосов: 1, оценка 5/5, голосовать можно 1 раз )

    Другие торренты по теме:

  • Пересекающиеся линии / Crossing Lines (2013) HDTVRip 720p | Sub торрент скачать бесплатно
  • Пересекающиеся линии / Crossing Lines (2013) WEB-DLRip|ViruseProject торрент скачать бесплатно
  • Пересекающиеся линии / Crossing Lines скачать через торрент бесплатно
  • Пересекающиеся линии / Пересекая черту / Crossing Lines (2014) HDTVRip от MediaClub | Sony Turbo скачать через торрент бесплатно
  • Пересекающиеся линии / Пересекая черту / Crossing Lines (2014) HDTVRip 720р от MediaClub | Sony Turbo скачать через торрент бесплатно
  • Пересекающиеся линии / Пересекая черту / Crossing lines (2014) HDTVRip торрент скачать бесплатно
  • Пересекающиеся линии / Пересекая черту / Crossing Lines (2013) BDRip 720р от MediaClub | P | Sony Turbo скачать через торрент бесплатно
  • Пересекающиеся линии / Пересекая черту / Crossing Lines (2013) HDRip от MediaClub | P | Sony Turbo скачать через торрент бесплатно


    • Комментарии (0):

      Информация

      Информация

        Посетители, находящиеся в группе Гости, не могут оставлять комментарии в данной новости.

        ↓ Меню



        ↓ Опрос

        А Вы добавили сайт в закладки?
        Да
        Не


        Top 10 за неделю (Фильмы)