.
Авторизация | Регистрация
Хочешь лучшие торренты? Добавь свой email!
Добавить
» » Голый среди волков / Nackt unter Wlfen (1962) DVDRip от Youtracker | D торрент скачать бесплатно




    Голый среди волков / Nackt unter Wlfen (1962) DVDRip от Youtracker | D торрент скачать бесплатно

    Опубликовал: Админ | Дата: 27-02-2015, 11:09 | Просмотров: 477



    Год выпуска: 1962
    Страна: ГДР
    Жанр: драма, военный
    Продолжительность: 01:32:21

    Перевод: Профессиональный (полное дублирование)
    Русские субтитры: нет
    Оригинальная аудиодорожка: нет

    Режиссер: Франк Байер / Frank Beyer

    В ролях: Эрвин Гешоннек, Армин Мюллер-Шталь, Кристин Вуйчик, Фред Дельмаре, Виктор Авдюшко, Герри Вольф, Болеслав Плотницкий, Петер Штурм, Эрик С. Кляйн, Герберт Кёфер...

    Роли дублировали: Алексей Консовский, Феликс Яворский, Владимир Прокофьев, Юрий Саранцев, Артем Карапетян...

    Описание: В основу картины положены подлинные события, происшедшие весной 1945 года в Бухенвальде. В прибывшем из Освенцима составе старый польский заключенный привозит в чемодане маленького еврейского мальчика, которого немедленно прячут члены подпольного комитета лагеря. Немецкая администрация узнает об этом и путем применения бесчеловечных репрессий требует его выдачи. Но сломить сопротивление узников не удалось, вспыхивает восстание…



    Исходник: DVD5 R5
    Качество: DVDRip
    Формат: AVI

    Видео: 672x368 (1.85:1), 25.0 fps, XviD MPEG-4 ~2057 kbps avg, 0.333 bit/pixel
    Аудио: Russian, AC3, 2/0 ch, 192 kbps, Delay 0 mSec
    Раздача от:
    MediaInfo

    Общее
    Полное имя : Golyi.sredi.volkov.1962.D.DVDRip_Youtracker_by_avproh.avi
    Формат : AVI
    Формат/Информация : Audio Video Interleave
    Размер файла : 1,46 Гбайт
    Продолжительность : 1 ч. 32 м.
    Общий поток : 2259 Кбит/сек
    Программа кодирования : VirtualDubMod 1.5.10.3 | www.virtualdub-fr.org || (build 2550/release)
    Библиотека кодирования : VirtualDubMod build 2550/release

    Видео
    Идентификатор : 0
    Формат : MPEG-4 Visual
    Профиль формата : Advanced Simple@L5
    Параметр BVOP формата : 1
    Параметр QPel формата : Нет
    Параметр GMC формата : Без точки перехода
    Параметр матрицы формата : Выборочная
    Идентификатор кодека : XVID
    Идентификатор кодека/Подсказка : XviD
    Продолжительность : 1 ч. 32 м.
    Битрейт : 2057 Кбит/сек
    Ширина : 672 пикселя
    Высота : 368 пикселей
    Соотношение сторон : 1,85:1
    Частота кадров : 25,000 кадров/сек
    Цветовое пространство : YUV
    Субдискретизация насыщенности : 4:2:0
    Битовая глубина : 8 бит
    Тип развёртки : Прогрессивная
    Метод сжатия : С потерями
    Бит/(Пиксели*Кадры) : 0.333
    Размер потока : 1,33 Гбайт (91%)
    Библиотека кодирования : XviD 65

    Аудио
    Идентификатор : 1
    Формат : AC-3
    Формат/Информация : Audio Coding 3
    Расширение режима : CM (complete main)
    Параметр Endianness формата : Big
    Идентификатор кодека : 2000
    Продолжительность : 1 ч. 32 м.
    Вид битрейта : Постоянный
    Битрейт : 192 Кбит/сек
    Каналы : 2 канала
    Расположение каналов : Front: L R
    Частота : 48,0 КГц
    Битовая глубина : 16 бит
    Метод сжатия : С потерями
    Размер потока : 127 Мбайт (9%)
    Выравнивание : Разделение по промежуткам
    Продолжительность промежутка : 40 мс. (1,00 видеокадр)
    Время предзагрузки промежутка : 500 мс.

    Скриншоты



    Залил: avproh
    Размер: 1.46 GB (1564329984 Bytes)
    загрузка...
    Рейтинг →
     (голосов: 1, оценка 4/5, голосовать можно 1 раз )

    Другие торренты по теме:

  • Голый среди волков / Nackt unter Wlfen (1962) DVD5 R5 от Youtracker | D | лицензия
  • Голый среди волков / Nackt unter Wolfen (2015) DVDRip


    • Комментарии (0):

      Информация

      Информация

        Посетители, находящиеся в группе Гости, не могут оставлять комментарии в данной новости.

        ↓ Меню



        ↓ Опрос

        А Вы добавили сайт в закладки?
        Да
        Не


        Top 10 за месяц (Фильмы)