.
Авторизация | Регистрация
» » Эйс Вентура 2: Когда зовет природа / Ace Ventura: When Nature Calls (1995) Blu-Ray Remux 1080p | D, P, P2, A торрент скачать бесплатно




    Эйс Вентура 2: Когда зовет природа / Ace Ventura: When Nature Calls (1995) Blu-Ray Remux 1080p | D, P, P2, A торрент скачать бесплатно

    Опубликовал: Админ | Дата: 27-02-2015, 11:09 | Просмотров: 407



    Информация о фильме
    Название: Эйс Вентура 2: Когда зовет природа
    Оригинальное название: Ace Ventura: When Nature Calls
    Год выхода: 1995
    Жанр: Комедия, детектив, приключения
    Режиссер: Стив Одекерк
    В ролях: Джим Керри, Иэн МакНис, Саймон Кэллоу, Мейнард Эзиаши, Боб Гантон, Софи Оконедо, Томми Дэвидсон, Адевале Акинойе-Агбаже, Дэнни Д. Дэниелс, Сэм Мотоана Филлипс, Дэймон Стандифер, Эндрю Стил, Брюс Спенс, Том Гранк, Арсенио Тринидад, Кристин Нортон, Майкл Рид МакКей, Кайла Аллен, Кен Кирзингер, Дев Кеннеди, Патти Типпо, Сабрина Кристи, Уоррен Срока

    О фильме:
    Место действия — Африка. Знаменитый детектив Эйс Вентура, единственный в мире специалист по розыску пропавших домашних любимцев, снова в деле. На этот раз Эйс должен найти Шикаку — священное животное племени Вачати. Без Шикаки не может состояться свадьба дочери вождя племени Вачати и сына вождя воинственного племени Вачуту. Если Эйс провалит задание, начнется межплеменная война. Но Эйс Вентура не из тех, кто отступает перед трудностями. В поисках священной Шикаки он сражается с аллигаторами, приручает слонов, подражает обезьянам, качается на лианах, ходит по раскаленным углям, вылезает, к ужасу семьи американских туристов, из задницы носорога и ставит на уши всю Африку




    Страна: США
    Студия: Morgan Creek Productions, O Entertainment
    Продолжительность: 01:34:03
    Перевод: Дублированный, профессиональный многоголосый, профессиональный двухголосый, авторский одноголосый

    Файл
    Кодек: MPEG-4 AVC
    Качество: Blu-Ray Remux (1080p)
    Видео: 22946 Кбит/с, 1920x1080
    Звук: Русский (AC3, 2 ch, 192 Кбит/с), (AC3, 6 ch, 384 Кбит/с), английский (DTS-HD MA, 5 ch, 3795 Кбит/с)
    Субтитры: Русские, английские

    Перевод
    1.Russian(Дублированный) - (AC3, 6 ch, 448 Кбит/с)
    2.Russian(Профессиональный многоголосый - ТНТ) - (AC3, 2 ch, 192 Кбит/с)
    3.Russian(Профессиональный многоголосый - Варус Видео) - (AC3, 2 ch, 192 Кбит/с)
    4.Russian(Профессиональный двухголосый - TV1000) - (AC3, 2 ch, 192 Кбит/с)
    5.Russian(Профессиональный двухголосый) - (AC3, 6 ch, 448 Кбит/с)
    6.Russian(Авторский одноголосый - Ю.Живов) - (AC3, 2 ch, 192 Кбит/с)
    7.Russian(Авторский одноголосый - П.Санаев) - (AC3, 6 ch, 448 Кбит/с)
    8.Russian(Авторский одноголосый - С.Визгунов) - (AC3, 6 ch, 448 Кбит/с)
    9.Russian(Авторский одноголосый - М.Латышев) - (AC3, 6 ch, 384 Кбит/с)
    10.English - (DTS-HD MA, 5 ch, 3795 Кбит/с)

    Субтитры: Русские (полные), английские (полные)

    *Russian(Профессиональный двухголосый - D2lab) - (DTS, 6 ch, 768 Кбит/с) отдельно http://yadi.sk/d/2Jwabawt8db56
    *Russian(Авторский одноголосый - П.Санаев) - (DTS-HD MA, 6 ch, ~ 3787 Кбит/с) отдельно http://yadi.sk/d/psCksHxG8e8Vm

    За передачу DTS дорожек большое спасибо Anoobis

    Что внутри
    Формат : Matroska
    Версия формата : Version 4 / Version 2
    Размер файла : 19,5 Гбайт
    Продолжительность : 1 ч. 34 м.
    Режим общего битрейта : Переменный
    Общий поток : 29,7 Мбит/сек
    Название фильма : Ace Ventura: When Nature Calls 1995 1080p Blu-ray Remux AVC DTS-HD MA 5.0 - KRaLiMaRKo
    Дата кодирования : UTC 2013-09-03 06:25:41
    Программа кодирования : mkvmerge v6.3.0 (;You can;t stop me!;) built on Jun 28 2013 20:09:41
    Библиотека кодирования : libebml v1.3.0 libmatroska v1.4.0

    Видео
    Идентификатор : 1
    Формат : AVC
    Формат/Информация : Advanced Video Codec
    Профиль формата : High@L4.1
    Параметр CABAC формата : Да
    Параметр ReFrames формата : 2 кадра
    Параметр GOP формата : M=1, N=10
    Идентификатор кодека : V_MPEG4/ISO/AVC
    Продолжительность : 1 ч. 34 м.
    Вид битрейта : Переменный
    Ширина : 1920 пикселей
    Высота : 1080 пикселей
    Соотношение сторон : 16:9
    Режим частоты кадров : Постоянный
    Частота кадров : 23,976 кадра/сек
    Цветовое пространство : YUV
    Субдискретизация насыщенности : 4:2:0
    Битовая глубина : 8 бит
    Тип развёртки : Прогрессивная
    Заголовок : Ace.Ventura.When.Nature.Calls.1995.Blu-Ray.Remux.(1080p)
    Язык : English
    Default : Да
    Forced : Нет

    Аудио #1
    Идентификатор : 2
    Формат : AC-3
    Формат/Информация : Audio Coding 3
    Расширение режима : CM (complete main)
    Параметр Endianness формата : Big
    Идентификатор кодека : A_AC3
    Продолжительность : 1 ч. 34 м.
    Вид битрейта : Постоянный
    Битрейт : 448 Кбит/сек
    Каналы : 6 каналов
    Расположение каналов : Front: L C R, Side: L R, LFE
    Частота : 48,0 КГц
    Битовая глубина : 16 бит
    Метод сжатия : С потерями
    Размер потока : 301 Мбайт (2%)
    Заголовок : Дублированный
    Язык : Russian
    Default : Да
    Forced : Да

    Аудио #2
    Идентификатор : 3
    Формат : AC-3
    Формат/Информация : Audio Coding 3
    Расширение режима : CM (complete main)
    Параметр Endianness формата : Big
    Идентификатор кодека : A_AC3
    Продолжительность : 1 ч. 34 м.
    Вид битрейта : Постоянный
    Битрейт : 192 Кбит/сек
    Каналы : 2 канала
    Расположение каналов : Front: L R
    Частота : 48,0 КГц
    Битовая глубина : 16 бит
    Метод сжатия : С потерями
    Размер потока : 129 Мбайт (1%)
    Заголовок : Многоголосый (THT)
    Язык : Russian
    Default : Нет
    Forced : Нет

    Аудио #3
    Идентификатор : 4
    Формат : AC-3
    Формат/Информация : Audio Coding 3
    Расширение режима : CM (complete main)
    Параметр Endianness формата : Big
    Идентификатор кодека : A_AC3
    Продолжительность : 1 ч. 34 м.
    Вид битрейта : Постоянный
    Битрейт : 192 Кбит/сек
    Каналы : 2 канала
    Расположение каналов : Front: L R
    Частота : 48,0 КГц
    Битовая глубина : 16 бит
    Метод сжатия : С потерями
    Размер потока : 129 Мбайт (1%)
    Заголовок : Многоголосый (Варус-Видео)
    Язык : Russian
    Default : Нет
    Forced : Нет

    Аудио #4
    Идентификатор : 5
    Формат : AC-3
    Формат/Информация : Audio Coding 3
    Расширение режима : CM (complete main)
    Параметр Endianness формата : Big
    Идентификатор кодека : A_AC3
    Продолжительность : 1 ч. 34 м.
    Вид битрейта : Постоянный
    Битрейт : 192 Кбит/сек
    Каналы : 2 канала
    Расположение каналов : Front: L R
    Частота : 48,0 КГц
    Битовая глубина : 16 бит
    Метод сжатия : С потерями
    Размер потока : 129 Мбайт (1%)
    Заголовок : Двухголосый (TV1000)
    Язык : Russian
    Default : Нет
    Forced : Нет

    Аудио #5
    Идентификатор : 6
    Формат : AC-3
    Формат/Информация : Audio Coding 3
    Расширение режима : CM (complete main)
    Параметр Endianness формата : Big
    Идентификатор кодека : A_AC3
    Продолжительность : 1 ч. 34 м.
    Вид битрейта : Постоянный
    Битрейт : 448 Кбит/сек
    Каналы : 6 каналов
    Расположение каналов : Front: L C R, Side: L R, LFE
    Частота : 48,0 КГц
    Битовая глубина : 16 бит
    Метод сжатия : С потерями
    Размер потока : 301 Мбайт (2%)
    Заголовок : Двухголосый
    Язык : Russian
    Default : Нет
    Forced : Нет

    Аудио #6
    Идентификатор : 7
    Формат : AC-3
    Формат/Информация : Audio Coding 3
    Расширение режима : CM (complete main)
    Параметр Endianness формата : Big
    Идентификатор кодека : A_AC3
    Продолжительность : 1 ч. 34 м.
    Вид битрейта : Постоянный
    Битрейт : 192 Кбит/сек
    Каналы : 2 канала
    Расположение каналов : Front: L R
    Частота : 48,0 КГц
    Битовая глубина : 16 бит
    Метод сжатия : С потерями
    Размер потока : 129 Мбайт (1%)
    Заголовок : Авторский одноголосый (Живов)
    Язык : Russian
    Default : Нет
    Forced : Нет

    Аудио #7
    Идентификатор : 8
    Формат : AC-3
    Формат/Информация : Audio Coding 3
    Расширение режима : CM (complete main)
    Параметр Endianness формата : Big
    Идентификатор кодека : A_AC3
    Продолжительность : 1 ч. 34 м.
    Вид битрейта : Постоянный
    Битрейт : 448 Кбит/сек
    Каналы : 6 каналов
    Расположение каналов : Front: L C R, Side: L R, LFE
    Частота : 48,0 КГц
    Битовая глубина : 16 бит
    Метод сжатия : С потерями
    Размер потока : 301 Мбайт (2%)
    Заголовок : Авторский одноголосый (Санаев)
    Язык : Russian
    Default : Нет
    Forced : Нет

    Аудио #8
    Идентификатор : 9
    Формат : AC-3
    Формат/Информация : Audio Coding 3
    Расширение режима : CM (complete main)
    Параметр Endianness формата : Big
    Идентификатор кодека : A_AC3
    Продолжительность : 1 ч. 34 м.
    Вид битрейта : Постоянный
    Битрейт : 448 Кбит/сек
    Каналы : 6 каналов
    Расположение каналов : Front: L C R, Side: L R, LFE
    Частота : 48,0 КГц
    Битовая глубина : 16 бит
    Метод сжатия : С потерями
    Размер потока : 301 Мбайт (2%)
    Заголовок : Авторский одноголосый (Визгунов)
    Язык : Russian
    Default : Нет
    Forced : Нет

    Аудио #9
    Идентификатор : 10
    Формат : AC-3
    Формат/Информация : Audio Coding 3
    Расширение режима : CM (complete main)
    Параметр Endianness формата : Big
    Идентификатор кодека : A_AC3
    Продолжительность : 1 ч. 34 м.
    Вид битрейта : Постоянный
    Битрейт : 384 Кбит/сек
    Каналы : 6 каналов
    Расположение каналов : Front: L C R, Side: L R, LFE
    Частота : 48,0 КГц
    Битовая глубина : 16 бит
    Метод сжатия : С потерями
    Размер потока : 258 Мбайт (1%)
    Заголовок : Авторский одноголосый (Латышев)
    Язык : Russian
    Default : Нет
    Forced : Нет

    Аудио #10
    Идентификатор : 11
    Формат : DTS
    Формат/Информация : Digital Theater Systems
    Профиль формата : MA / Core
    Режим : 16
    Параметр Endianness формата : Big
    Идентификатор кодека : A_DTS
    Продолжительность : 1 ч. 34 м.
    Вид битрейта : Переменный
    Битрейт : Неизвестно / 1509 Кбит/сек
    Каналы : 5 каналов
    Расположение каналов : Front: L C R, Side: L R
    Частота : 48,0 КГц
    Битовая глубина : 24 бит
    Метод сжатия : Без потерь / Lossy
    Язык : English
    Default : Нет
    Forced : Нет

    Текст #1
    Идентификатор : 12
    Формат : UTF-8
    Идентификатор кодека : S_TEXT/UTF8
    Идентификатор кодека/Информация : UTF-8 Plain Text
    Язык : Russian
    Default : Нет
    Forced : Нет

    Текст #2
    Идентификатор : 13
    Формат : UTF-8
    Идентификатор кодека : S_TEXT/UTF8
    Идентификатор кодека/Информация : UTF-8 Plain Text
    Язык : English
    Default : Нет
    Forced : Нет

    Меню
    00:00:00.000 : en:To the Rescue (Credits)
    00:02:58.845 : en:Hungry, Fella?
    00:03:55.902 : en:The Raccoon That Got Away
    00:06:01.194 : en:More One Than Anyone
    00:10:51.860 : en:Stepping Out
    00:12:26.204 : en:Menagerie in the Air
    00:14:20.401 : en:Chitty Chitty Bang Bang
    00:16:59.018 : en:How Good Ace Is
    00:18:51.213 : en:The Monopoly Man
    00:21:47.973 : en:Shadow Play
    00:24:27.633 : en:The Nature of the Beast
    00:26:48.440 : en:Gobs of Affection; Shikaka
    00:32:21.648 : en:The Virgin;s Dance of Destruction
    00:34:37.993 : en:Nearly Clueless
    00:35:29.044 : en:Spitball and Mantra Practice
    00:39:14.894 : en:Going to Bats
    00:41:31.030 : en:Master of Disguises (Secret Agent Man)
    00:43:40.535 : en:Mother Rhino
    00:47:15.124 : en:Eye Contact
    00:50:22.144 : en:Numbstruck
    00:51:53.736 : en:Infiltrating the Wachootoo
    00:55:13.644 : en:Lost in the Translation
    00:56:37.769 : en:Put to the Test
    00:58:41.685 : en:The Circle of Death
    01:00:32.337 : en:Making the Point Twice
    01:03:02.904 : en:The Wachootoo Sendoff
    01:04:08.511 : en:The Real Batnappers
    01:06:58.640 : en:Rafting and Wrestling
    01:09:26.829 : en:A Valuable Commodity After All
    01:12:25.591 : en:The Slime Behind the Flimflam
    01:17:27.810 : en:Lend Me Your Rears
    01:17:48.497 : en:Animals Underfoot
    01:20:09.930 : en:Big Wheels, Little Wheels
    01:22:44.459 : en:The Bat Is Back
    01:25:32.127 : en:They Can Tell That?
    01:26:43.031 : en:End Credits


    Релиз
    Перетяжка и синхронизация всех Русских аудио дорожек - Respector
    Подгон Русских субтитров - Respector
    Сборка Ремукса - StabirS


    Скриншоты


    Залил: StarbirS
    Размер: 19.51 GB (20946216394 Bytes)
    загрузка...
    Рейтинг →
     (голосов: 1, оценка 5/5, голосовать можно 1 раз )

    Другие торренты по теме:

  • Эйс Вентура: Дилогия / Ace Ventura: Dilogy (1993-1995) HDTVRip 1080p торрент скачать бесплатно
  • Эйс Вентура: Розыск домашних животных / Ace Ventura: Pet Detective (1993) HDTVRip | D торрент скачать бесплатно
  • Эйс Вентура 2 / Ace Ventura: When Nature Calls / 1995 (1995) WEB-DL 1080p от MediaClub торрент скачать бесплатно
  • Эйс Вентура: Розыск домашних животных / Ace Ventura: Pet Detective (1994) BDRip-AVC от MediaClub | D, P, A торрент скачать бесплатно
  • Эйс Вентура: Розыск домашних животных / Ace Ventura: Pet Detective (1994) BDRip 1080p от Freeisland торрент скачать бесплатно
  • Эйс Вентура 2: Когда зовет природа / Ace Ventura: When Nature Calls (1995) BDRip 1080p от Freeisland торрент скачать бесплатно
  • Эйс Вентура: Розыск домашних животных / Ace Ventura: Pet Detective (1994) BDRip 1080p торрент скачать бесплатно
  • Эйс Вентура 2: Когда зовет природа / Ace Ventura: When Nature Calls (1995) BDRip от HQCLUB скачать торрент бесплатно


    • Комментарии (0):

      Информация

      Информация

        Посетители, находящиеся в группе Гости, не могут оставлять комментарии в данной новости.

        ↓ Меню



        ↓ Опрос

        А Вы добавили сайт в закладки?
        Да
        Не


        Top 10 за неделю (Фильмы)