.
Авторизация | Регистрация
» » Стартрек: Возмездие / Star Trek Into Darkness (2013) BDRemux 1080p | D торрент скачать бесплатно




    Стартрек: Возмездие / Star Trek Into Darkness (2013) BDRemux 1080p | D торрент скачать бесплатно

    Опубликовал: Админ | Дата: 27-02-2015, 11:09 | Просмотров: 281



    Информация о фильме
    Название: Стартрек: Возмездие
    Оригинальное название: Star Trek Into Darkness
    Год выпуска: 2013
    Жанр: Фантастика, боевик, приключения
    Выпущено: США, Bad Robot, Kurtzman/Orci, Paramount Pictures, Skydance Productions
    Режиссер: Джей Джей Абрамс
    В ролях: Крис Пайн, Закари Куинто, Зои Салдана, Карл Урбан, Бенедикт Камбербэтч, Саймон Пегг, Элис Ив, Антон Ельчин, Джон Чо, Питер Уэллер

    О фильме: Вернувшись на Землю, команда корабля Энтерпрайз обнаруживает, что деятельность и принципы их организации подорваны изнутри. Флот скован необъяснимым ужасом и бездействует, пока мир все глубже погружается в бездну.Капитан Кирк берет на себя руководство операцией по поимке злодея, ответственного за этот хаос и способного уничтожить все человечество.В запутанной игре не на жизнь, а на смерть, любовь и дружба будут принесены в жертву ради единственного, что осталось у Кирка — его команды.



    Файл
    Качество: Blu-Ray Remux (1080p)
    Видео: MPEG-4 AVC, 26.2 Мбит/с, 1920x1080, 23.976 кадр/с
    Аудио: Русский (AC3, 6 ch, 448 Кбит/с), английский (TrueHD, 8 ch, 4342 Кбит/с), (AC3, 6 ch, 640 Кбит/с)
    Размер: 29.17 ГБ
    Продолжительность: 02:12:05
    Перевод: Дублированный не кинотеатральный
    Субтитры: Русские, английские, французские

    MI
    олное имя : D:Стартрек.Возмездие-Star.Trek.Into.Darkness.(2013).BDRemux.1080p.mkv
    Формат : Matroska
    Версия формата : Version 2
    Размер файла : 29,2 Гбайт
    Продолжительность : 2 ч. 12 м.
    Режим общего битрейта : Переменный
    Общий поток : 31,6 Мбит/сек
    Название фильма : Star Trek Into Darkness (2013) / Lelya_K for NNM-Club
    Дата кодирования : UTC 2013-09-03 00:06:11
    Программа кодирования : mkvmerge v5.7.0 (;The Whirlwind;) built on Aug 7 2012 14:11:40
    Библиотека кодирования : libebml v1.2.3 libmatroska v1.3.0

    Видео
    Идентификатор : 1
    Формат : AVC
    Формат/Информация : Advanced Video Codec
    Профиль формата : High@L4.1
    Параметр CABAC формата : Да
    Параметр ReFrames формата : 4 кадра
    Идентификатор кодека : V_MPEG4/ISO/AVC
    Продолжительность : 2 ч. 12 м.
    Вид битрейта : Переменный
    Максимальный битрейт : 31,7 Мбит/сек
    Ширина : 1920 пикселей
    Высота : 1080 пикселей
    Соотношение сторон : 16:9
    Режим частоты кадров : Постоянный
    Частота кадров : 23,976 кадра/сек
    Цветовое пространство : YUV
    Субдискретизация насыщенности : 4:2:0
    Битовая глубина : 8 бит
    Тип развёртки : Прогрессивная
    Заголовок : Стартрек.Возмездие-Star.Trek.Into.Darkness.(2013).BDRemux.1080p
    Язык : English
    Default : Да
    Forced : Нет

    Аудио #1
    Идентификатор : 2
    Формат : AC-3
    Формат/Информация : Audio Coding 3
    Расширение режима : CM (complete main)
    Параметр Endianness формата : Big
    Идентификатор кодека : A_AC3
    Продолжительность : 2 ч. 12 м.
    Вид битрейта : Постоянный
    Битрейт : 448 Кбит/сек
    Каналы : 6 каналов
    Расположение каналов : Front: L C R, Side: L R, LFE
    Частота : 48,0 КГц
    Битовая глубина : 16 бит
    Метод сжатия : С потерями
    Размер потока : 423 Мбайт (1%)
    Заголовок : AC3 5.1 / 448 kbps / Dub
    Язык : Russian
    Default : Да
    Forced : Нет

    Аудио #2
    Идентификатор : 3
    Формат : TrueHD
    Идентификатор кодека : A_TRUEHD
    Продолжительность : 2 ч. 12 м.
    Вид битрейта : Переменный
    Максимальный битрейт : 6510 Кбит/сек
    Каналы : 8 каналов
    Расположение каналов : Front: L C R, Side: L R, Back: L R, LFE
    Частота : 48,0 КГц
    Метод сжатия : Без потерь
    Заголовок : TrueHD 7.1 / 4342 kbps / Original
    Язык : English
    Default : Нет
    Forced : Нет

    Аудио #3
    Идентификатор : 4
    Формат : AC-3
    Формат/Информация : Audio Coding 3
    Расширение режима : CM (complete main)
    Параметр Endianness формата : Big
    Идентификатор кодека : A_AC3
    Продолжительность : 2 ч. 12 м.
    Вид битрейта : Постоянный
    Битрейт : 640 Кбит/сек
    Каналы : 6 каналов
    Расположение каналов : Front: L C R, Side: L R, LFE
    Частота : 48,0 КГц
    Битовая глубина : 16 бит
    Метод сжатия : С потерями
    Размер потока : 605 Мбайт (2%)
    Заголовок : AC3 5.1 / 640 kbps / Deive
    Язык : English
    Default : Нет
    Forced : Нет

    Текст #1
    Идентификатор : 5
    Формат : UTF-8
    Идентификатор кодека : S_TEXT/UTF8
    Идентификатор кодека/Информация : UTF-8 Plain Text
    Заголовок : Full
    Язык : Russian
    Default : Нет
    Forced : Нет

    Текст #2
    Идентификатор : 6
    Формат : UTF-8
    Идентификатор кодека : S_TEXT/UTF8
    Идентификатор кодека/Информация : UTF-8 Plain Text
    Заголовок : Full
    Язык : English
    Default : Нет
    Forced : Нет

    Текст #3
    Идентификатор : 7
    Формат : UTF-8
    Идентификатор кодека : S_TEXT/UTF8
    Идентификатор кодека/Информация : UTF-8 Plain Text
    Заголовок : SDH
    Язык : English
    Default : Нет
    Forced : Нет

    Текст #4
    Идентификатор : 8
    Формат : UTF-8
    Идентификатор кодека : S_TEXT/UTF8
    Идентификатор кодека/Информация : UTF-8 Plain Text
    Язык : French
    Default : Нет
    Forced : Нет

    Меню
    00:00:00.000 : en:Chapter 1
    00:10:20.369 : en:Chapter 2
    00:19:21.493 : en:Chapter 3
    00:30:03.968 : en:Chapter 4
    00:40:09.115 : en:Chapter 5
    00:46:05.262 : en:Chapter 6
    00:56:38.228 : en:Chapter 7
    01:06:35.783 : en:Chapter 8
    01:12:55.662 : en:Chapter 9
    01:22:45.752 : en:Chapter 10
    01:30:54.740 : en:Chapter 11
    01:38:36.368 : en:Chapter 12
    01:47:09.548 : en:Chapter 13
    01:54:17.141 : en:Chapter 14
    01:59:20.653 : en:Chapter 15
    02:03:18.307 : en:Chapter 16

    Скриншоты



    Размер: 29.17 GB (31318859922 Bytes)
    загрузка...
    Рейтинг →
     (голосов: 1, оценка 4/5, голосовать можно 1 раз )

    Другие торренты по теме:

  • Стартрек: Возмездие / Star Trek Into Darkness (2013) HDRip-720p | D | Трейлер торрент скачать бесплатно
  • OST - Стартрек: Возмездие / Star Trek: Into Darkness (2013) AAC торрент скачать бесплатно
  • Стартрек: Возмездие / Star Trek Into Darkness (2013) HDRip | Звук с TS торрент скачать бесплатно
  • Стартрек: Возмездие / Star Trek Into Darkness (2013) BDRip 720p | Звук с TS торрент скачать бесплатно
  • Стартрек: Возмездие / Star Trek Into Darkness (2013) BDRip 1080p | 3D-Video | halfOU | Звук с TS торрент скачать бесплатно
  • Стартрек: Возмездие / Star Trek Into Darkness (2013) Blu-Ray Remux | Звук с TS торрент скачать бесплатно
  • Стартрек: Возмездие / Star Trek Into Darkness (2013) BDRip | Звук с TS торрент скачать бесплатно
  • Стартрек: Возмездие / Star Trek Into Darkness (2013) BDRip 720p | L1 торрент скачать бесплатно


    • Комментарии (0):

      Информация

      Информация

        Посетители, находящиеся в группе Гости, не могут оставлять комментарии в данной новости.

        ↓ Меню



        ↓ Опрос

        А Вы добавили сайт в закладки?
        Да
        Не


        Top 10 за неделю (Фильмы)