.
Авторизация | Регистрация
» » Стартрек: Возмездие / Star Trek Into Darkness (2013) BDRip 1080p | 3D-Video | halfOU | D торрент скачать бесплатно




    Стартрек: Возмездие / Star Trek Into Darkness (2013) BDRip 1080p | 3D-Video | halfOU | D торрент скачать бесплатно

    Опубликовал: Админ | Дата: 27-02-2015, 11:09 | Просмотров: 411



    Информация о фильме
    Название: Стартрек: Возмездие
    Оригинальное название: Star Trek Into Darkness
    Год выпуска: 2013
    Жанр: Фантастика, боевик, приключения
    Выпущено: США, Bad Robot, Kurtzman/Orci, Paramount Pictures, Skydance Productions
    Режиссер: Джей Джей Абрамс
    В ролях: Крис Пайн, Закари Куинто, Зои Салдана, Карл Урбан, Бенедикт Камбербэтч, Саймон Пегг, Элис Ив, Антон Ельчин, Джон Чо, Питер Уэллер

    О фильме: Вернувшись на Землю, команда корабля Энтерпрайз обнаруживает, что деятельность и принципы их организации подорваны изнутри. Флот скован необъяснимым ужасом и бездействует, пока мир все глубже погружается в бездну.Капитан Кирк берет на себя руководство операцией по поимке злодея, ответственного за этот хаос и способного уничтожить все человечество.В запутанной игре не на жизнь, а на смерть, любовь и дружба будут принесены в жертву ради единственного, что осталось у Кирка — его команды.



    Файл
    Формат 3D: Half OverUnder / Вертикальная анаморфная стереопара
    Качество: BDRip (1080p)
    Видео: MPEG-4 AVC, 16.5 Мбит/с, 1920x1080, 23.976 кадр/с
    Аудио: Русский (AC3, 6 ch, 448 Кбит/с), английский (AC3, 6 ch, 640 Кбит/с)
    Размер: 16.24 ГБ
    Продолжительность: 02:12:05
    Перевод: Дублированный не кинотеатральный
    Субтитры: Английские, испанские, французские, португальские

    Семпл
    MI
    бщее
    Уникальный идентификатор : 196587110348741514647464040041649202703 (0x93E54CDD311DA6ED84D282BE840AE60F)
    Полное имя : C:загрузкиStar Trek Into Darkness 2013 3D BluRay Half-OU DD5.1 x264-HDMaNiAcSStar Trek Into Darkness 2013 3D BluRay Half-OU DD5.1 x264-HDMaNiAcS (1).mkv
    Формат : Matroska
    Версия формата : Version 2
    Размер файла : 16,2 Гбайт
    Продолжительность : 2 ч. 12 м.
    Общий поток : 17,6 Мбит/сек
    Дата кодирования : UTC 2013-09-02 22:26:08
    Программа кодирования : mkvmerge v6.3.0 (;You can;t stop me!;) built on Jun 28 2013 20:09:41
    Библиотека кодирования : libebml v1.3.0 libmatroska v1.4.0

    Видео
    Идентификатор : 1
    Формат : AVC
    Формат/Информация : Advanced Video Codec
    Профиль формата : High@L4.1
    Параметр CABAC формата : Да
    Параметр ReFrames формата : 4 кадра
    Идентификатор кодека : V_MPEG4/ISO/AVC
    Продолжительность : 2 ч. 12 м.
    Битрейт : 16,5 Мбит/сек
    Ширина : 1920 пикселей
    Высота : 1080 пикселей
    Соотношение сторон : 16:9
    Режим частоты кадров : Постоянный
    Частота кадров : 23,976 кадра/сек
    Цветовое пространство : YUV
    Субдискретизация насыщенности : 4:2:0
    Битовая глубина : 8 бит
    Тип развёртки : Прогрессивная
    Бит/(Пиксели*Кадры) : 0.332
    Размер потока : 14,9 Гбайт (92%)
    Библиотека кодирования : x264 core 132 r2310 76a5c3a
    Настройки программы : cabac=1 / ref=4 / deblock=1:-3:-3 / analyse=0x3:0x113 / me=tesa / subme=11 / psy=1 / psy_rd=1.10:0.00 / mixed_ref=1 / me_range=24 / chroma_me=1 / trellis=2 / 8x8dct=1 / cqm=0 / deadzone=21,11 / fast_pskip=0 / chroma_qp_offset=-2 / threads=12 / lookahead_threads=2 / sliced_threads=0 / nr=0 / decimate=0 / interlaced=0 / bluray_compat=0 / constrained_intra=0 / bframes=8 / b_pyramid=2 / b_adapt=2 / b_bias=0 / direct=3 / weightb=1 / open_gop=0 / weightp=2 / keyint=250 / keyint_min=23 / scenecut=40 / intra_refresh=0 / rc_lookahead=40 / rc=2pass / mbtree=0 / bitrate=16500 / ratetol=1.0 / qcomp=0.60 / qpmin=10 / qpmax=69 / qpstep=4 / cplxblur=20.0 / qblur=0.5 / vbv_maxrate=40000 / vbv_bufsize=30000 / nal_hrd=none / frame-packing=4 / ip_ratio=1.30 / pb_ratio=1.15 / aq=1:0.60
    Язык : English
    Default : Да
    Forced : Нет

    Аудио #1
    Идентификатор : 2
    Формат : AC-3
    Формат/Информация : Audio Coding 3
    Расширение режима : CM (complete main)
    Параметр Endianness формата : Big
    Идентификатор кодека : A_AC3
    Продолжительность : 2 ч. 12 м.
    Вид битрейта : Постоянный
    Битрейт : 448 Кбит/сек
    Каналы : 6 каналов
    Расположение каналов : Front: L C R, Side: L R, LFE
    Частота : 48,0 КГц
    Битовая глубина : 16 бит
    Метод сжатия : С потерями
    Размер потока : 423 Мбайт (3%)
    Язык : Russian
    Default : Да
    Forced : Нет

    Аудио #2
    Идентификатор : 3
    Формат : AC-3
    Формат/Информация : Audio Coding 3
    Расширение режима : CM (complete main)
    Параметр Endianness формата : Big
    Идентификатор кодека : A_AC3
    Продолжительность : 2 ч. 12 м.
    Вид битрейта : Постоянный
    Битрейт : 640 Кбит/сек
    Каналы : 6 каналов
    Расположение каналов : Front: L C R, Side: L R, LFE
    Частота : 48,0 КГц
    Битовая глубина : 16 бит
    Метод сжатия : С потерями
    Размер потока : 605 Мбайт (4%)
    Язык : English
    Default : Нет
    Forced : Нет

    Текст #1
    Идентификатор : 4
    Формат : PGS
    Режим смешивания : zlib
    Идентификатор кодека : S_HDMV/PGS
    Идентификатор кодека/Информация : The same subtitle format used on BDs/HD-DVDs
    Язык : English
    Default : Да
    Forced : Нет

    Текст #2
    Идентификатор : 5
    Формат : PGS
    Режим смешивания : zlib
    Идентификатор кодека : S_HDMV/PGS
    Идентификатор кодека/Информация : The same subtitle format used on BDs/HD-DVDs
    Язык : French
    Default : Нет
    Forced : Нет

    Текст #3
    Идентификатор : 6
    Формат : PGS
    Режим смешивания : zlib
    Идентификатор кодека : S_HDMV/PGS
    Идентификатор кодека/Информация : The same subtitle format used on BDs/HD-DVDs
    Язык : Portuguese
    Default : Нет
    Forced : Нет

    Текст #4
    Идентификатор : 7
    Формат : PGS
    Режим смешивания : zlib
    Идентификатор кодека : S_HDMV/PGS
    Идентификатор кодека/Информация : The same subtitle format used on BDs/HD-DVDs
    Язык : Spanish
    Default : Нет
    Forced : Нет

    Меню
    00:00:00.000 : en:00:00:00.000
    00:10:20.370 : en:00:10:20.370
    00:19:21.494 : en:00:19:21.494
    00:30:03.969 : en:00:30:03.969
    00:40:09.115 : en:00:40:09.115
    00:46:05.262 : en:00:46:05.262
    00:56:38.228 : en:00:56:38.228
    01:06:35.783 : en:01:06:35.783
    01:12:55.663 : en:01:12:55.663
    01:22:45.752 : en:01:22:45.752
    01:30:54.741 : en:01:30:54.741
    01:38:36.369 : en:01:38:36.369
    01:47:09.548 : en:01:47:09.548
    01:54:17.142 : en:01:54:17.142
    01:59:20.653 : en:01:59:20.653
    02:03:18.308 : en:02:03:18.308

    Скриншоты


    Размер: 16.24 GB (17435794043 Bytes)
    загрузка...
    Рейтинг →
     (голосов: 1, оценка 4/5, голосовать можно 1 раз )

    Другие торренты по теме:

  • Стартрек: Возмездие / Star Trek Into Darkness (2013) HDRip-720p | D | Трейлер торрент скачать бесплатно
  • OST - Стартрек: Возмездие / Star Trek: Into Darkness (2013) AAC торрент скачать бесплатно
  • Стартрек: Возмездие / Star Trek Into Darkness (2013) HDRip | Звук с TS торрент скачать бесплатно
  • Стартрек: Возмездие / Star Trek Into Darkness (2013) BDRip 720p | Звук с TS торрент скачать бесплатно
  • Стартрек: Возмездие / Star Trek Into Darkness (2013) BDRip 1080p | 3D-Video | halfOU | Звук с TS торрент скачать бесплатно
  • Стартрек: Возмездие / Star Trek Into Darkness (2013) Blu-Ray Remux | Звук с TS торрент скачать бесплатно
  • Стартрек: Возмездие / Star Trek Into Darkness (2013) BDRip | Звук с TS торрент скачать бесплатно
  • Стартрек: Возмездие / Star Trek Into Darkness (2013) BDRip 720p | L1 торрент скачать бесплатно


    • Комментарии (0):

      Информация

      Информация

        Посетители, находящиеся в группе Гости, не могут оставлять комментарии в данной новости.

        ↓ Меню



        ↓ Опрос

        А Вы добавили сайт в закладки?
        Да
        Не


        Top 10 за неделю (Фильмы)