.
Авторизация | Регистрация
Хочешь лучшие торренты? Добавь свой email!
Добавить
» » Смертельные компаньоны / The Deadly Companions (1961) DVDRip | от NovaLan торрент скачать бесплатно




    Смертельные компаньоны / The Deadly Companions (1961) DVDRip | от NovaLan торрент скачать бесплатно

    Опубликовал: Админ | Дата: 27-02-2015, 11:09 | Просмотров: 413




    Страна: США
    Производство: The Deadly Companions
    Жанр: Вестерн
    Год выпуска: 1961

    Продолжительность: 01:29:47


    Перевод: Авторский одноголосый закадровый (Визгунов)

    Оригинальная аудиодорожка: Английская

    Cубтитры: Нет


    Режиссер: Сэм Пекинпа


    В ролях: Морин О’Хара, Брайан Кит, Стив Кохрэн, Чилл Уиллс, Стразер Мартин, Уилл Райт, Джеймс О’Хара, Питер О’Кротти, Билли Воэн, Хэнк Гоббл




    Описание:
    Исходник: DVD5 R1

    Тип релиза: DVDRip

    Контейнер: AVI


    Видео: 704x304 (2.32:1), 23.976 fps, XviD ~1792 kbps avg, 0.35 bit/pixel
    Аудио: #1: 48 kHz, AC3 2.0 ~256.00 kbps avg (RUS)
    Аудио: #2: 48 kHz, AC3 2.0 ~256.00 kbps avg (ENG)



    MediaInfo
    Общее
    Полное имя : D:1АААСмертельные компаньоны.avi
    Формат : AVI
    Формат/Информация : Audio Video Interleave
    Размер файла : 1,45 Гбайт
    Продолжительность : 1 ч. 29 м.
    Общий поток : 2319 Кбит/сек
    Программа кодирования : VirtualDubMod 1.5.10.2 (build 2540/release)
    Библиотека кодирования : VirtualDubMod build 2540/release

    Видео
    Идентификатор : 0
    Формат : MPEG-4 Visual
    Профиль формата : Advanced Simple@L5
    Параметр BVOP формата : 2
    Параметр QPel формата : Нет
    Параметр GMC формата : Без точки перехода
    Параметр матрицы формата : Default (MPEG)
    Режим смешивания : Сжатый битовый поток
    Идентификатор кодека : XVID
    Идентификатор кодека/Подсказка : XviD
    Продолжительность : 1 ч. 29 м.
    Битрейт : 1793 Кбит/сек
    Ширина : 704 пикселя
    Высота : 304 пикселя
    Соотношение сторон : 2,35:1
    Частота кадров : 23,976 кадра/сек
    Цветовое пространство : YUV
    Субдискретизация насыщенности : 4:2:0
    Битовая глубина : 8 бит
    Тип развёртки : Прогрессивная
    Метод сжатия : С потерями
    Бит/(Пиксели*Кадры) : 0.349
    Размер потока : 1,12 Гбайт (77%)
    Библиотека кодирования : XviD 1.2.1 (UTC 2008-12-04)

    Аудио #1
    Идентификатор : 1
    Формат : AC-3
    Формат/Информация : Audio Coding 3
    Расширение режима : CM (complete main)
    Параметр Endianness формата : Big
    Идентификатор кодека : 2000
    Продолжительность : 1 ч. 29 м.
    Вид битрейта : Постоянный
    Битрейт : 256 Кбит/сек
    Каналы : 2 канала
    Расположение каналов : Front: L R
    Частота : 48,0 КГц
    Битовая глубина : 16 бит
    Метод сжатия : С потерями
    Размер потока : 164 Мбайт (11%)
    Выравнивание : Разделение по промежуткам
    Продолжительность промежутка : 42 мс. (1,00 видеокадр)
    Время предзагрузки промежутка : 500 мс.

    Аудио #2
    Идентификатор : 2
    Формат : AC-3
    Формат/Информация : Audio Coding 3
    Расширение режима : CM (complete main)
    Параметр Endianness формата : Big
    Идентификатор кодека : 2000
    Продолжительность : 1 ч. 29 м.
    Вид битрейта : Постоянный
    Битрейт : 256 Кбит/сек
    Каналы : 2 канала
    Расположение каналов : Front: L R
    Частота : 48,0 КГц
    Битовая глубина : 16 бит
    Метод сжатия : С потерями
    Размер потока : 164 Мбайт (11%)
    Выравнивание : Разделение по промежуткам
    Продолжительность промежутка : 42 мс. (1,00 видеокадр)
    Время предзагрузки промежутка : 500 мс.







    Скриншоты




    Релиз группа:

    Автор рипа:
    Залил: YArl
    Размер: 1.45 GB (1561706496 Bytes)
    загрузка...
    Рейтинг →
     (голосов: 1, оценка 4/5, голосовать можно 1 раз )

    Другие торренты по теме:

  • Смертельные игры / Арена / Arena (2011) BDRip-AVC от Youtracker | P
  • Вне подозрений: Смертельные намерения / Above Suspicion: Deadly Intent (2010) HDTVRip от Brazzass скачать через торрент бесплатно
  • Смертельные деньги / Money Kills (2012) HDTVRip-AVC от MediaClub | P
  • Смертельные добродетели. Люби, чти, подчиняйся. / Deadly Virtues: Love.Honour.Obey. (2014) DVDRip | L2
  • Смертельные соперники / Deadly Rivals (1993) DVDRip | P2 скачать через торрент бесплатно
  • Смертельные видения / Deadly Visions (2004) DVDRip | P2
  • Следствие покажет с Владимиром Маркиным (Смертельные долги. Коллекторы) / 2015 / РУ / HDTVRip
  • Смертельные соперники / Deadly Rivals (1993) DVDRip | Гаврилов


    • Комментарии (0):

      Информация

      Информация

        Посетители, находящиеся в группе Гости, не могут оставлять комментарии в данной новости.

        ↓ Меню



        ↓ Опрос

        А Вы добавили сайт в закладки?
        Да
        Не


        Top 10 за месяц (Фильмы)